Секрети домашніх тварин / The Secret Life of Pets (2016) 1080p 3D [HalfOverUnder] Ukr/Eng | Sub Ukr/Eng

Нові коментарі

Нова тема   Відповісти
Автор Повідомлення
-VipeR- 
VIP


З нами з: 17.07.08
Востаннє: 23.08.17
Повідомлень: 289

2016-11-13 14:22  
Секрети домашніх тварин / The Secret Life of Pets (2016) 1080p 3D [HalfOverUnder] Ukr/Eng | Sub Ukr/Eng

Секрети домашніх тварин / The Secret Life of Pets (2016) 1080p 3D [HalfOverUnder] Ukr/Eng | Sub Ukr/Eng

Постери з акторами дубляжу





Жанр: анімація, комедія, пригодницький, сімейний
Країна: США, Японія



Кінокомпанія: Universal Pictures, Illumination Entertainment
Режисер: Кріс Рено / Chris Renaud, Ярроу Чейні / Yarrow Cheney
Актори: Луї Сі Кей / Louis C.K., Ерік Стоунстріт / Eric Stonestreet, Кевін Гарт / Kevin Hart, Дженні Слейт / Jenny Slate, Еллі Кемпер / Ellie Kemper, Альберт Брукс / Albert Brooks, Лейк Белл / Lake Bell, Ганнібал Баресс / Hannibal Buress, Кріс Рено / Chris Renaud, Стів Куґан / Steve Coogan та інші

Сюжет:
Улюбленець своєї власниці пес Макс жив щасливо у квартирі на Мангеттені. Він грав і спілкувався з сусідськими звірятами. Але все життя Макса перекинулося догори дригом, коли його хазяйка вирішила взяти ще одного пса - Дюка. Парочка ніяк не могла помиритися, проте їм довелося залишити свої сварки позаду через важливіші причини. Кролик на ім'я Сніжок збирає армію загублених домашніх тварин, щоб помститися своїм двоногим кривдникам.


Тривалість: 01:26:27
Якість: 1080p 3D [HalfOverUnder] ash61
Відео:
кодек:
розмір кадру: 1920 х 1080
бітрейт: 12 мбіт/с

Аудіо # 1:
мова: українська
переклад: професійний дубльований
кодек: 5.1
бітрейт: 640 кб/с
Інформація про дубляж

Фільм дубльовано студією LeDoyen на замовлення B&H Film Distribution
Переклад: Сергій Ковальчук
Режисер дубляжу: Ганна Пащенко
Звукорежисер: Микита Будаш
Звукорежисер перезапису: Олег Кульчицький
Координатор проекту: Аліна Гаєвська
Ролі дублювали: Сергій Притула, Андрій Федінчик, Сергій Солопай, Олеся Жураковська, Павло Шилько (dj Паша), Марина Андрощук, Валерій Легін, Євген Малуха, Назар Задніпровський та інші
Мікс дубляжної версії здійснено на студії LeDoyen
Аудіо # 2:
мова: англійська
переклад: оригінал
кодек: 5.1
бітрейт: 640 кб/с

Субтитри:
мова: українська (Повні,Форсовані)
тип: програмні (м'які)
формат: *.srt

Субтитри:
мова: англійська (Full,SDH)
тип: програмні (м'які)
формат: *.srt
Info
Код:
General
Unique ID                      : 223534388375715921551899382720169698041 (0xA82B283F64BB15C18E24EB1A59B2E2F9)
Complete name                  : D:\3D\Мультики\The Secret Life Of Pets (2016) 1080p 3D [HalfOverUnder] Ukr Eng.
Format                         :
Format version                 : Version 4 / Version 2
File size                      : 8.01 GiB
Duration                       : 1h 26mn
Overall bit rate               : 13.3 Mbps
Movie name                     : Секрети домашніх тварин / The Secret Life of Pets (2016) 3D
Encoded date                   : UTC 2016-12-11 09:16:12
Writing application            : mkvmerge v8.8.0 ('Wind at my back') 64bit
Writing library                : libebml v1.3.3 + libmatroska v1.4.4
Cover                          : Yes
Attachments                    : cover.jpg

Video
ID                             : 1
Format                         : AVC
Format/Info                    : Advanced Video Codec
Format profile                 : [email protected]
Format settings, CABAC         : Yes
Format settings, ReFrames      : 4 frames
Codec ID                       : V_MPEG4/ISO/AVC
Duration                       : 1h 26mn
Bit rate                       : 12.0 Mbps
Width                          : 1 920 pixels
Height                         : 1 080 pixels
Display aspect ratio           : 16:9
Frame rate mode                : Constant
Frame rate                     : 23.976 (24000/1001) fps
Color space                    : YUV
Chroma subsampling             : 4:2:0
Bit depth                      : 8 bits
Scan type                      : Progressive
Bits/(Pixel*Frame)             : 0.241
Stream size                    : 7.24 GiB (90%)
Title                          : by Ash61
Writing library                : core 146 r2538 121396c
Encoding settings              : cabac=1 / ref=4 / deblock=1:-3:-3 / analyse=0x3:0x113 / me=umh / subme=10 / psy=1 / psy_rd=1.00:0.00 / mixed_ref=1 / me_range=32 / chroma_me=1 / trellis=2 / 8x8dct=1 / cqm=0 / deadzone=21,11 / fast_pskip=1 / chroma_qp_offset=-2 / threads=12 / lookahead_threads=3 / sliced_threads=0 / nr=0 / decimate=1 / interlaced=0 / bluray_compat=0 / constrained_intra=0 / bframes=12 / b_pyramid=2 / b_adapt=2 / b_bias=0 / direct=3 / weightb=1 / open_gop=0 / weightp=2 / keyint=250 / keyint_min=23 / scenecut=40 / intra_refresh=0 / rc_lookahead=60 / rc=crf / mbtree=1 / crf=14.5 / qcomp=0.70 / qpmin=0 / qpmax=69 / qpstep=4 / vbv_maxrate=40000 / vbv_bufsize=30000 / crf_max=0.0 / nal_hrd=none / filler=0 / frame-packing=4 / ip_ratio=1.40 / aq=1:0.70
Language                       : English
Default                        : Yes
Forced                         : No

Audio #1
ID                             : 2
Format                         : AC-3
Format/Info                    : Audio Coding 3
Mode extension                 : CM (complete main)
Format settings, Endianness    : Big
Codec ID                       : A_AC3
Duration                       : 1h 26mn
Bit rate mode                  : Constant
Bit rate                       : 640 Kbps
Channel(s)                     : 6 channels
Channel positions              : Front: L C R, Side: L R, LFE
Sampling rate                  : 48.0 KHz
Frame rate                     : 31.250 fps (1536 spf)
Compression mode               : Lossy
Stream size                    : 396 MiB (5%)
Title                          : Дубляж BD
Language                       : Ukrainian
Default                        : Yes
Forced                         : Yes

Audio #2
ID                             : 3
Format                         : AC-3
Format/Info                    : Audio Coding 3
Mode extension                 : CM (complete main)
Format settings, Endianness    : Big
Codec ID                       : A_AC3
Duration                       : 1h 26mn
Bit rate mode                  : Constant
Bit rate                       : 640 Kbps
Channel(s)                     : 6 channels
Channel positions              : Front: L C R, Side: L R, LFE
Sampling rate                  : 48.0 KHz
Frame rate                     : 31.250 fps (1536 spf)
Compression mode               : Lossy
Stream size                    : 396 MiB (5%)
Title                          : Original - BD 3D
Language                       : English
Default                        : No
Forced                         : No

Text #1
ID                             : 4
Format                         : UTF-8
Codec ID                       : S_TEXT/UTF8
Codec ID/Info                  : UTF-8 Plain Text
Duration                       : 1h 24mn
Bit rate                       : 65 bps
Count of elements              : 1259
Stream size                    : 40.9 KiB (0%)
Title                          : Повні
Language                       : Ukrainian
Default                        : No
Forced                         : No

Text #2
ID                             : 5
Format                         : UTF-8
Codec ID                       : S_TEXT/UTF8
Codec ID/Info                  : UTF-8 Plain Text
Duration                       : 1h 24mn
Bit rate                       : 1 bps
Count of elements              : 26
Stream size                    : 778 Bytes (0%)
Title                          : Форсовані
Language                       : Ukrainian
Default                        : Yes
Forced                         : No

Text #3
ID                             : 6
Format                         : UTF-8
Codec ID                       : S_TEXT/UTF8
Codec ID/Info                  : UTF-8 Plain Text
Duration                       : 1h 25mn
Bit rate                       : 50 bps
Count of elements              : 1314
Stream size                    : 31.5 KiB (0%)
Title                          : Full
Language                       : English
Default                        : No
Forced                         : No

Text #4
ID                             : 7
Format                         : UTF-8
Codec ID                       : S_TEXT/UTF8
Codec ID/Info                  : UTF-8 Plain Text
Duration                       : 1h 26mn
Bit rate                       : 61 bps
Count of elements              : 1685
Stream size                    : 39.0 KiB (0%)
Title                          : SDH
Language                       : English
Default                        : No
Forced                         : No

Menu
00:00:00.000                   : :1
00:05:05.847                   : :2
00:09:24.063                   : :3
00:13:18.840                   : :4
00:18:03.666                   : :5
00:22:14.458                   : :6
00:28:51.855                   : :7
00:32:54.848                   : :8
00:36:55.839                   : :9
00:42:27.295                   : :10
00:44:46.767                   : :11
00:50:21.227                   : :12
00:54:45.407                   : :13
00:59:33.987                   : :14
01:02:36.544                   : :15
01:07:12.362                   : :16
01:13:06.841                   : :17
01:16:04.602                   : :18
01:18:48.057                   : :19
01:19:58.836                   : :20
Скріншоти




Джерело: &
Особиста оцінка: 10 - без зайвих вагань рекомендую всім!

Відео для перегляду на 3D обладнанні!


 Трекер:    Зареєстрований   

Завантажити / скачати мультфільм українською



відео для новачків



 Зареєстрований:   2016-12-11 12:34
 Розмір:   8.01 GB 
 Оцінка мультфільму:   9.6/10 (Голосів: 7)
   
11FrYkT 
Модератор відео


З нами з: 20.02.11
Востаннє: 23.08.17
Повідомлень: 3814

2016-11-13 22:41  
-VipeR- написано:
Title                          : Форсированные

Надалі підписуйте заголовки доріжок(сабів) українською і якщо це доріжка чи форсовані саби то ставте:
Форсувати - так, за промовчуванням - так

MaxiLong 
Новенький


З нами з: 26.07.09
Востаннє: 09.08.17
Повідомлень: 24

2016-12-03 20:02  
Можете додати в опис класні постери про акторів дублювання?

-VipeR- 
VIP


З нами з: 17.07.08
Востаннє: 23.08.17
Повідомлень: 289

2016-12-11 12:43  
Реліз оновлено!

Замінено доріжку Line на ліцензію, додано повні українські субтитри!

Прохання підтримати реліз!

Ваш часовий пояс: GMT + 2 Години

Нова тема   Відповісти