Дитина Бріджит Джонс / Bridget Jones's Baby (2016) 1080p Ukr/Eng | Sub Eng

Нові коментарі

Нова тема   Відповісти
Автор Повідомлення
Anonymous 







2016-11-12 20:45  
Дитина Бріджит Джонс / Bridget Jones's Baby (2016) 1080p Ukr/Eng | Sub Eng



Альтернативні постери




повнорозмірні зображення відкриються по кліку (з натиснутим CTRL чи кліком середньою кнопкою мишки - у новій вкладці)


Жанр: комедія, мелодрама
Країна: США, Велика Британія, Франція, Ірландія



Кінокомпанія: Miramax, StudioCanal, Universal Pictures, Working Title Films
Режисер: Шерон Маґвайр / Sharon Maguire
Актори: Рене Зеллвеґер / Renée Zellweger, Колін Ферт / Colin Firth, Патрік Демпсі / Patrick Dempsey, Саллі Філліпс / Sally Phillips, Бен Вілбонд / Ben Willbond, Сара Солемані / Sarah Solemani та інші

Сюжет:
Бріджит Джонс завжди мріяла про хеппі-енд. Але після офіційного розриву з Марком Дарсі, який нікуди не зник, а завжди поруч у вигляді запасного аеродрому, вона досі незаміжня, правда, з успішною кар'єрою телепродюсера. І тут життя ставить Бріджит романтичну підніжку у вигляді привабливого американця на ім'я Джек, який є повною протилежністю містера Дарсі. Віддавшись пристрасті, улюблениця всіх жінок планети виявляє, що вагітна і при цьому тільки на 50% впевнена, хто з чоловіків батько її дитини.

Офіційний український трейлер:
Альтернативний український офіційний трейлер



Рейтинг MPAA: R - особам до 17 років обов'язкова присутність батьків або дорослого опікуна
Вікова категорія: 16+

Тривалість: 02:02:39
Якість: 1080p
Відео:
кодек:
розмір кадру: 1916 х 804
бітрейт: 15,4 Мбіт/с [crf=16.9]

Аудіо # 1:
мова: українська
переклад: професійний дубльований | студія LeDoyen
кодек: 2.0 (стерео)
бітрейт: 192 Кбіт/с
Інформація про дубляж
Фільм дубльовано студією LeDoyen на замовлення B&H Film Distribution
Переклад: Катерина Щепковська
Режисер дубляжу: Ольга Фокіна
Звукорежисер: Олена Лапіна
Звукорежисер перезапису: Дмитро Мялковський
Координатор проекту: Ольга Боєва
Ролі дублювали: Катерина Сергєєва, Олесь Гімбаржевський, Володимир Паляниця, Христина Забара, Наталя Задніпровська, Людмила Ардельян, Інна Бєлікова, Валерія Чайковська, Дмитро Завадський, Юрій Кудрявець, Віталіна Біблів та інші
Аудіо # 2:
мова: англійська
переклад: оригінал
кодек: 5.1
бітрейт: 1509 Кбіт/с

Субтитри # 1:
мова: українська (форсовані)
тип: програмні (м'які)
формат: *.srt

Субтитри # 2:
мова: англійська (SDH)
тип: програмні (м'які)
формат: *.srt

Збережено оригінальні розділи, як на Blu-ray
Info
Код:
Format                      :
Format version              : Version 4 / Version 2
File size                   : 14.6 GiB
Duration                    : 2 h 2 min
Overall bit rate            : 17.1 Mb/s

Video
ID                          : 1
Format                      : AVC
Format/Info                 : Advanced Video Codec
Format profile              : [email protected]
Format settings, CABAC      : Yes
Format settings, ReFrames   : 5 frames
Codec ID                    : V_MPEG4/ISO/AVC
Duration                    : 2 h 2 min
Bit rate                    : 15.4 Mb/s
Width                       : 1 920 pixels
Height                      : 804 pixels
Display aspect ratio        : 2.40:1
Frame rate mode             : Constant
Frame rate                  : 23.976 (24000/1001) FPS
Color space                 : YUV
Chroma subsampling          : 4:2:0
Bit depth                   : 8 bits
Scan type                   : Progressive
Bits/(Pixel*Frame)          : 0.416
Stream size                 : 13.2 GiB (90%)
Title                       : Дитина Бріджит Джонс / Бріджит Джонс 3 / Bridget Jones's Baby (2016) 1080p [CRiME; HDClub]
Writing library             : core 148 r2721 72d53ab
Encoding settings           : cabac=1 / ref=5 / deblock=1:-3:-3 / analyse=0x3:0x133 / me=umh / subme=10 / psy=1 / psy_rd=1.05:0.00 / mixed_ref=1 / me_range=64 / chroma_me=1 / trellis=2 / 8x8dct=1 / cqm=0 / deadzone=21,11 / fast_pskip=0 / chroma_qp_offset=-2 / threads=6 / lookahead_threads=1 / sliced_threads=0 / nr=0 / decimate=0 / interlaced=0 / bluray_compat=0 / constrained_intra=0 / bframes=8 / b_pyramid=2 / b_adapt=2 / b_bias=0 / direct=3 / weightb=1 / open_gop=0 / weightp=2 / keyint=250 / keyint_min=23 / scenecut=40 / intra_refresh=0 / rc_lookahead=60 / rc=crf / mbtree=0 / crf=16.9 / qcomp=0.65 / qpmin=0 / qpmax=69 / qpstep=4 / vbv_maxrate=62500 / vbv_bufsize=78125 / crf_max=0.0 / nal_hrd=none / filler=0 / ip_ratio=1.25 / pb_ratio=1.15 / aq=3:0.73
Language                    : English
Default                     : Yes
Forced                      : No

Audio #1
ID                          : 2
Format                      : AC-3
Format/Info                 : Audio Coding 3
Mode extension              : CM (complete main)
Format settings, Endianness : Big
Codec ID                    : A_AC3
Duration                    : 2 h 2 min
Bit rate mode               : Constant
Bit rate                    : 192 kb/s
Channel(s)                  : 2 channels
Channel positions           : Front: L R
Sampling rate               : 48.0 kHz
Frame rate                  : 31.250 FPS (1536 spf)
Bit depth                   : 16 bits
Compression mode            : Lossy
Stream size                 : 168 MiB (1%)
Title                       : Dub [LeDoyen, iTunes] 2.0 [stereo] 192 kbps
Language                    : Ukrainian
Default                     : Yes
Forced                      : Yes

Audio #2
ID                          : 3
Format                      :
Format/Info                 : Digital Theater Systems
Mode                        : 16
Format settings, Endianness : Big
Codec ID                    : A_DTS
Duration                    : 2 h 2 min
Bit rate mode               : Constant
Bit rate                    : 1 509 kb/s
Channel(s)                  : 6 channels
Channel positions           : Front: L C R, Side: L R, LFE
Sampling rate               : 48.0 kHz
Frame rate                  : 93.750 FPS (512 spf)
Bit depth                   : 24 bits
Compression mode            : Lossy
Stream size                 : 1.29 GiB (9%)
Title                       : Original, 5.1 1536 kbps
Language                    : English
Default                     : No
Forced                      : No

Text #1
ID                          : 4
Format                      : UTF-8
Codec ID                    : S_TEXT/UTF8
Codec ID/Info               : UTF-8 Plain Text
Duration                    : 1 h 43 min
Bit rate                    : 2 b/s
Count of elements           : 45
Stream size                 : 2.17 KiB (0%)
Title                       : Ukr Forced [iTunes]
Language                    : Ukrainian
Default                     : Yes
Forced                      : Yes

Text #2
ID                          : 5
Format                      : UTF-8
Codec ID                    : S_TEXT/UTF8
Codec ID/Info               : UTF-8 Plain Text
Duration                    : 1 h 54 min
Bit rate                    : 79 b/s
Count of elements           : 2158
Stream size                 : 66.5 KiB (0%)
Title                       : Eng SDH [iTunes]
Language                    : English
Default                     : No
Forced                      : No

Menu
00:00:00.000                : en:Chapter 01
00:08:49.529                : en:Chapter 02
00:16:21.563                : en:Chapter 03
00:24:09.656                : en:Chapter 04
00:29:54.626                : en:Chapter 05
00:34:51.297                : en:Chapter 06
00:41:29.236                : en:Chapter 07
00:47:42.401                : en:Chapter 08
00:52:05.455                : en:Chapter 09
00:57:44.836                : en:Chapter 10
01:03:38.314                : en:Chapter 11
01:08:12.880                : en:Chapter 12
01:13:17.476                : en:Chapter 13
01:20:48.552                : en:Chapter 14
01:27:32.997                : en:Chapter 15
01:37:28.175                : en:Chapter 16
01:43:18.442                : en:Chapter 17
01:48:10.567                : en:Chapter 18
01:51:53.665                : en:Chapter 19
01:56:07.794                : en:Chapter 20
Порівняння скріншотів
Оригінал <----------> Ріп








Джерела та подяки: &


28.02.2017 Реліз оновлено!
Замінено відеоряд на та українську доріжку на , додано українські форсовані субтитри
Це остаточний варіант, українського звуку 5.1 на ліцензійних носіях немає і не передбачається
Прохання підтримати реліз!


ЗАЛИШАЙТЕСЬ ЯКОМОГА ДОВШЕ НА РОЗДАЧІ!
ЗАВАНТАЖИВ САМ - ДАЙ ЗАВАНТАЖИТИ ІНШИМ!


 Трекер:    Зареєстрований   

Завантажити / скачати фільм українською



відео для новачків



 Зареєстрований:   2017-02-28 13:05
 Розмір:   14.64 GB 
 Оцінка фільму:   5.7/10 (Голосів: 30)
   
EduardGol 
Поважний учасник


З нами з: 03.10.13
Востаннє: 20.10.17
Повідомлень: 169

2016-11-20 10:31  
Якісна комедія, яку варто подивитись у суботній вечір. Happy
Uberwinder 
Свій


З нами з: 18.11.16
Востаннє: 20.10.17
Повідомлень: 138

2017-01-25 21:24  
Дякую, фільм дуже сподобався. Рідко зустрічаються дотепні фільми з тонким гумором.
Anonymous 







2017-02-28 13:07  
Реліз оновлено!
Замінено відеоряд на , українську доріжку на , додано українські форсовані субтитри
Це остаточний варіант, українського звуку 5.1 на ліцензійних носіях немає і не передбачається
Прохання підтримати реліз, золото на тиждень!

alesandroua 
Новенький


З нами з: 09.10.16
Востаннє: 19.10.17
Повідомлень: 13

2017-03-02 02:08  
На протязі усього фільму не міг повірити що це Рене. Як не прискорбно констатувати, але повернення оскароносної актриси не відбулося, навіть у якості усіма любимої Бріджит Джонс. Ні сюжету, ні акторскої гри, нічого. Висока планка "Щоденника Бріджит Джонс" звела на нівець усі потуги авторів цієї частини, от якби назвали просто якось по їншому...можливо була б непогана комедія.
Ваш часовий пояс: GMT + 2 Години

Нова тема   Відповісти