Завантажити та скачати торренти українською


Барбі: Зоряні пригоди / Barbie: Star Light Adventure (2016) 720p Ukr/Eng | Sub Ukr(songs)/Eng

Нові коментарі

Нова тема   Відповісти
Автор Повідомлення
Anonymous 







2016-11-09 22:24  
Барбі: Зоряні пригоди / Barbie: Star Light Adventure (2016) 720p Ukr/Eng | Sub Ukr (на пісні)/Eng

Барбі: Зоряні пригоди / Barbie: Star Light Adventure (2016) 720p Ukr/Eng | Sub Ukr(songs)/Eng


Жанр: анімація, сімейний
Країна: США



Кінокомпанія: Nelvana, Guru Animation Studio, Six Point Harness, Arc Animation and Visual Effects
Режисер: Майкл Ґоґуен / Michael Goguen , Ендрю Тан / Andrew Tan
Актори: Еріка Ліндбек / Erica Lindbeck, Роббі Деймонд / Robbie Daymond, Кімберлі Вудс / Kimberly Woods, Сара Енн Вільямс / Sarah Anne Williams, Майкл Чандлер / Michael Chandler та інші

Сюжет:
Принцеса Барбі запрошує у захопливу космічну пригоду - відкривайте разом нові планети і здійсніть найзаповітніші мрії. Нові друзі, кумедні ситуації, містичні казкові створіння, супершвидкісні зорельоти і, звісно, розкішні костюми - чекають всіх прихильників найпопулярнішої ляльки у світі. Вперед, Барбі! Прямуй до зірок!

Український офіційний трейлер:

Тривалість: 01:19:27
Якість: 720p
Відео:
кодек:
розмір кадру: 1280 х 720
бітрейт: 4372 Кбіт/с

Аудіо # 1:
мова: українська
переклад: професійний дубльований | студія LeDoyen
кодек: 2.0
бітрейт: 192 Кбіт/с

Аудіо # 2:
мова: англійська
переклад: оригінал
кодек: 5.1
бітрейт: 640 Кбіт/с

Субтитри # 1:
мова: українська (форсовані на пісні)
тип: програмні (м'які)
формат: *.srt

Субтитри # 2-3:
мова: англійська (повні, SDH)
тип: програмні (м'які)
формат: *.srt
Info
Код:
Format                      :
Format version              : Version 4 / Version 2
File size                   : 2.89 GiB
Duration                    : 1 h 19 min
Overall bit rate            : 5 206 kb/s

Video
ID                          : 1
Format                      : AVC
Format/Info                 : Advanced Video Codec
Format profile              : [email protected]
Format settings, CABAC      : Yes
Format settings, ReFrames   : 5 frames
Codec ID                    : V_MPEG4/ISO/AVC
Duration                    : 1 h 19 min
Bit rate                    : 4 372 kb/s
Width                       : 1 280 pixels
Height                      : 720 pixels
Display aspect ratio        : 16:9
Frame rate mode             : Constant
Frame rate                  : 23.976 (24000/1001) FPS
Color space                 : YUV
Chroma subsampling          : 4:2:0
Bit depth                   : 8 bits
Scan type                   : Progressive
Bits/(Pixel*Frame)          : 0.198
Stream size                 : 2.43 GiB (84%)
Title                       : Барбі: Зоряні пригоди / Barbie: Star Light Adventure (2016) 720p [GUACAMOLE]
Writing library             : core 148 r2705 3f5ed56
Encoding settings           : cabac=1 / ref=5 / deblock=1:0:0 / analyse=0x3:0x113 / me=umh / subme=7 / psy=1 / psy_rd=1.00:0.00 / mixed_ref=1 / me_range=16 / chroma_me=1 / trellis=1 / 8x8dct=1 / cqm=0 / deadzone=21,11 / fast_pskip=0 / chroma_qp_offset=-2 / threads=12 / lookahead_threads=2 / sliced_threads=0 / nr=0 / decimate=1 / interlaced=0 / bluray_compat=0 / constrained_intra=0 / bframes=3 / b_pyramid=2 / b_adapt=2 / b_bias=0 / direct=3 / weightb=1 / open_gop=0 / weightp=2 / keyint=250 / keyint_min=23 / scenecut=40 / intra_refresh=0 / rc_lookahead=50 / rc=2pass / mbtree=1 / bitrate=4372 / ratetol=1.0 / qcomp=0.60 / qpmin=0 / qpmax=69 / qpstep=4 / cplxblur=20.0 / qblur=0.5 / ip_ratio=1.40 / aq=1:1.00
Language                    : English
Default                     : Yes
Forced                      : No

Audio #1
ID                          : 2
Format                      : AC-3
Format/Info                 : Audio Coding 3
Mode extension              : CM (complete main)
Format settings, Endianness : Big
Codec ID                    : A_AC3
Duration                    : 1 h 19 min
Bit rate mode               : Constant
Bit rate                    : 192 kb/s
Channel(s)                  : 2 channels
Channel positions           : Front: L R
Sampling rate               : 48.0 kHz
Frame rate                  : 31.250 FPS (1536 spf)
Bit depth                   : 16 bits
Compression mode            : Lossy
Stream size                 : 109 MiB (4%)
Title                       : Dub [LeDoyen] 2.0 192 Kbps [Hurtom-Covenant]
Language                    : Ukrainian
Default                     : Yes
Forced                      : Yes

Audio #2
ID                          : 3
Format                      : AC-3
Format/Info                 : Audio Coding 3
Mode extension              : CM (complete main)
Format settings, Endianness : Big
Codec ID                    : A_AC3
Duration                    : 1 h 19 min
Bit rate mode               : Constant
Bit rate                    : 640 kb/s
Channel(s)                  : 6 channels
Channel positions           : Front: L C R, Side: L R, LFE
Sampling rate               : 48.0 kHz
Frame rate                  : 31.250 FPS (1536 spf)
Bit depth                   : 16 bits
Compression mode            : Lossy
Stream size                 : 364 MiB (12%)
Title                       : Original, 5.1 640 Kbps
Language                    : English
Default                     : No
Forced                      : No

Text #1
ID                          : 4
Format                      : UTF-8
Codec ID                    : S_TEXT/UTF8
Codec ID/Info               : UTF-8 Plain Text
Duration                    : 1 h 13 min
Bit rate                    : 5 b/s
Count of elements           : 86
Stream size                 : 3.04 KiB (0%)
Title                       : Ukr Forced for songs [Hurtom-zest13]
Language                    : Ukrainian
Default                     : Yes
Forced                      : Yes

Text #2
ID                          : 5
Format                      : UTF-8
Codec ID                    : S_TEXT/UTF8
Codec ID/Info               : UTF-8 Plain Text
Duration                    : 1 h 15 min
Bit rate                    : 53 b/s
Count of elements           : 877
Stream size                 : 29.4 KiB (0%)
Title                       : Eng full
Language                    : English
Default                     : No
Forced                      : No

Text #3
ID                          : 6
Format                      : UTF-8
Codec ID                    : S_TEXT/UTF8
Codec ID/Info               : UTF-8 Plain Text
Duration                    : 1 h 15 min
Bit rate                    : 59 b/s
Count of elements           : 1025
Stream size                 : 32.5 KiB (0%)
Title                       : Eng SDH
Language                    : English
Default                     : No
Forced                      : No


Джерело: &
Подяка п.Covenant за українську доріжку та пані zest13 за переклад пісень


 Трекер:    Зареєстрований   

Завантажити / скачати мультфільм українською



відео для новачків



 Зареєстрований:   2017-01-19 16:49
 Розмір:   2.89 GB 
 Оцінка мультфільму:   2.6/10 (Голосів: 13)
   
Anonymous 







2017-01-13 14:20  
Форсовані субтитри на 4 неозвучені пісні взято на переклад кандидатом в субтитрувальники, по їх готовності буде реліз.
bot 
робот


З нами з: 30.09.07
Востаннє: 26.05.05
Повідомлень: 16471

2017-01-19 16:48  
Тему перенесено з Анонси релізів до форуму Мультфільми в HD


igor911

Anonymous 







2017-01-19 18:18  
Ваш часовий пояс: GMT + 2 Години

Нова тема   Відповісти