Стартрек: За межами Всесвіту / Star Trek Beyond (2016) 720p-mini (60 fps)

Нові коментарі

Нова тема   Відповісти
Автор Повідомлення
Drool 
VIP


З нами з: 17.04.10
Востаннє: 25.09.17
Повідомлень: 1396

2016-11-07 16:42  
Стартрек: За межами Всесвіту / Star Trek Beyond (2016) 720p-mini (60 fps)

Жанр: фантастика, бойовик, трилер, пригодницький
Країна: США



Кінокомпанія: Paramount Pictures, Skydance Productions, Alibaba Pictures Group, Huahua Media, Bad Robot, Sneaky Shark, Perfect Storm Entertainment
Режисер: Джастін Лін
Актори: Кріс Пайн, Закарі Квінто, Саймон Пегг, Карл Урбан, Зоі Салдана, Ідріс Ельба, Софія Бутелла, Джон Чо, Шоре Агдашлу та інші

Сюжет:
Від режисера "Форсажу" та популярного серіалу "Справжній детектив" Джастіна Ліна, а також продюсера "Вулиця Монстро, 10" і "Місія неможлива: Нація ізгоїв" Джей Джей Абрамса. Продовження фантастичних пригод екіпажу зоряного корабля "Ентерпрайз" на чолі з капітаном Т. Кірком. Під час місії на незвідану територію зоряне судно і команда були атаковані невідомими прибульцями. Їм довелося покинути "Ентерпрайз" і висадитися на планету, де немає ні зв'язку, ні засобів порятунку. Поки капітан Кірк намагається зібрати весь свій екіпаж і придумати як їм повернутися на Землю, на горизонті з'являється новий ворог.


Тривалість: 02:02:22
Якість: 720p-mini
Відео:
кодек:
розмір кадру: 1280x536
бітрейт: 4824 кб/с
crf: crf=17.8
кадрів на секунду: 59.940 к/с

Аудіо:
мова: українська
переклад: професійний дубльований
кодек: 5.1
бітрейт: 448 кб/с
Подяка пану AngryBirdsUA за українську доріжку

Субтитри:
мова: українська
тип: програмні (м'які, форсовані)
формат: *.srt
Info
Код:
General
Unique ID                                : 144726203990609750936179193389862559020 (0x6CE140C4A0B3031A31D376F07C3B1D2C)
Complete name                            : /mnt/disk_d/Video/Star.Trek.Beyond.2016.Ukr.Dub-DVD..720p-mini.60fps.
Format                                   :
Format version                           : Version 4 / Version 2
File size                                : 4.60 GiB
Duration                                 : 2h 2mn
Overall bit rate                         : 5 379 Kbps
Movie name                               : Стартрек: За межами Всесвіту / Star Trek Beyond (2016) 720p-mini [60fps] | NNNB
Encoded date                             : UTC 2017-02-27 16:00:52
Writing application                      : mkvmerge v9.7.1 ('Pandemonium') 64bit
Writing library                          : libebml v1.3.4 + libmatroska v1.4.5
Attachements                             : cover.jpg
DURATION                                 : 02:02:22.176000000
NUMBER_OF_FRAMES                         : 229443
NUMBER_OF_BYTES                          : 411161856
_STATISTICS_WRITING_APP                  : mkvmerge v9.7.1 ('Pandemonium') 64bit
_STATISTICS_WRITING_DATE_UTC             : 2017-02-27 16:00:52
_STATISTICS_TAGS                         : BPS DURATION NUMBER_OF_FRAMES NUMBER_OF_BYTES

Video
ID                                       : 1
Format                                   : AVC
Format/Info                              : Advanced Video Codec
Format profile                           : [email protected]
Format settings, CABAC                   : Yes
Format settings, ReFrames                : 9 frames
Codec ID                                 : V_MPEG4/ISO/AVC
Duration                                 : 2h 2mn
Bit rate                                 : 4 824 Kbps
Width                                    : 1 280 pixels
Height                                   : 536 pixels
Display aspect ratio                     : 2.40:1
Frame rate mode                          : Constant
Frame rate                               : 59.880 fps
Original frame rate                      : 59.940 fps
Color space                              : YUV
Chroma subsampling                       : 4:2:0
Bit depth                                : 8 bits
Scan type                                : Progressive
Bits/(Pixel*Frame)                       : 0.117
Stream size                              : 4.12 GiB (90%)
Title                                    : Стартрек: За межами Всесвіту / Star Trek Beyond (2016) 720p-mini [60fps] | NNNB
Writing library                          : core 146 r2538 121396c
Encoding settings                        : cabac=1 / ref=9 / deblock=1:0:0 / analyse=0x3:0x113 / me=umh / subme=9 / psy=1 / psy_rd=1.00:0.00 / mixed_ref=1 / me_range=24 / chroma_me=1 / trellis=2 / 8x8dct=1 / cqm=0 / deadzone=21,11 / fast_pskip=0 / chroma_qp_offset=-2 / threads=12 / lookahead_threads=1 / sliced_threads=0 / nr=0 / decimate=1 / interlaced=0 / bluray_compat=0 / constrained_intra=0 / bframes=5 / b_pyramid=2 / b_adapt=2 / b_bias=0 / direct=3 / weightb=1 / open_gop=0 / weightp=2 / keyint=250 / keyint_min=25 / scenecut=40 / intra_refresh=0 / rc_lookahead=40 / rc=crf / mbtree=0 / crf=17.8 / qcomp=0.60 / qpmin=0 / qpmax=69 / qpstep=4 / vbv_maxrate=14000 / vbv_bufsize=14000 / crf_max=0.0 / nal_hrd=none / filler=0 / ip_ratio=1.40 / pb_ratio=1.30 / aq=3:1.00
Default                                  : Yes
Forced                                   : Yes
DURATION                                 : 02:02:22.135000000
NUMBER_OF_FRAMES                         : 440088
NUMBER_OF_BYTES                          : 4520251468
_STATISTICS_WRITING_APP                  : mkvmerge v9.7.1 ('Pandemonium') 64bit
_STATISTICS_WRITING_DATE_UTC             : 2017-02-27 16:00:52
_STATISTICS_TAGS                         : BPS DURATION NUMBER_OF_FRAMES NUMBER_OF_BYTES

Audio
ID                                       : 2
Format                                   : AC-3
Format/Info                              : Audio Coding 3
Mode extension                           : CM (complete main)
Format settings, Endianness              : Big
Codec ID                                 : A_AC3
Duration                                 : 2h 2mn
Bit rate mode                            : Constant
Bit rate                                 : 448 Kbps
Channel(s)                               : 6 channels
Channel positions                        : Front: L C R, Side: L R, LFE
Sampling rate                            : 48.0 KHz
Compression mode                         : Lossy
Stream size                              : 392 MiB (8%)
Title                                    : 5.1 @ 448 kbps
Language                                 : Ukrainian
Default                                  : Yes
Forced                                   : Yes

Text
ID                                       : 3
Format                                   : UTF-8
Codec ID                                 : S_TEXT/UTF8
Codec ID/Info                            : UTF-8 Plain Text
Title                                    : Forced
Language                                 : Ukrainian
Default                                  : Yes
Forced                                   : Yes
Скріншоти


Джерело відеоряду:
Особиста оцінка: 9 - давно не бачив настільки якісне кіно


 Трекер:    Зареєстрований   

Завантажити / скачати фільм українською



відео для новачків



 Зареєстрований:   2017-02-27 19:32
 Розмір:   4.6 GB 
 Оцінка фільму:   9.2/10 (Голосів: 35)
   
Mant1kor 
Свій


З нами з: 27.10.10
Востаннє: 24.09.17
Повідомлень: 53

2016-11-07 21:06  
Панове, скажіть звідки взялись 60fps в фільмі? Джерело таке чи апскейл з звичайного?
igor911 
Відео Гуртом
Відео Гуртом


З нами з: 18.01.08
Востаннє: 25.09.17
Повідомлень: 7732

2016-11-07 21:12  
Mant1kor, ріпер домалював.
Mant1kor 
Свій


З нами з: 27.10.10
Востаннє: 24.09.17
Повідомлень: 53

2016-11-07 21:19  
igor911, зрозуміло.
А зараз можна дістати фільми з чесними 60fps, чи таких не випускають в масовий продаж?
Я просто не слідкую за ринком фільмів в Blu-Ray.

igor911 
Відео Гуртом
Відео Гуртом


З нами з: 18.01.08
Востаннє: 25.09.17
Повідомлень: 7732

2016-11-07 21:39  
Mant1kor, за специфікацією блурей диск підтримує 60 к/с, а от чи випускають в реалі і які, я не цікавився.
Drool 
VIP


З нами з: 17.04.10
Востаннє: 25.09.17
Повідомлень: 1396

2016-11-07 21:43  
Кемерон обіцяв Аватар-2 знімати нативні 60 fps...
zoomymba2012 
Свій


З нами з: 08.01.15
Востаннє: 25.09.17
Повідомлень: 124

2016-11-08 00:08  
Drool
Не було такого.

Drool 
VIP


З нами з: 17.04.10
Востаннє: 25.09.17
Повідомлень: 1396

2016-11-08 01:04  
zoomymba2012 написано:
Не було такого
В гуглі забанили?
NOWW 
Новенький


З нами з: 23.03.15
Востаннє: 25.09.17
Повідомлень: 21

2017-02-26 18:54  
доріжку на DVD, заміните?
bot 
робот


З нами з: 30.09.07
Востаннє: 26.05.05
Повідомлень: 17589

2017-02-27 19:32  
Тему перенесено з Анонси релізів до форуму Фільми в HD


Drool

Drool 
VIP


З нами з: 17.04.10
Востаннє: 25.09.17
Повідомлень: 1396

2017-02-27 19:40  
Замінено доріжку на 5.1 448 kbps з DVD.
NOWW 
Новенький


З нами з: 23.03.15
Востаннє: 25.09.17
Повідомлень: 21

2017-02-28 14:50  
Drool
Велике дякую!!!

igor911 
Відео Гуртом
Відео Гуртом


З нами з: 18.01.08
Востаннє: 25.09.17
Повідомлень: 7732

2017-03-05 01:28  
Mant1kor написано:
А зараз можна дістати фільми з чесними 60fps, чи таких не випускають в масовий продаж?

Є з 120 кадрів на секунду з роздільною здатністю 4K, наприклад ось цей фільм https://toloka.to/t80137 http://www.blu-ray.com/movies/Billy-Lynns-Long-Halftime-Walk-4K-Blu-ray/166475/

0934900039 
Новенький


З нами з: 30.11.16
Востаннє: 25.09.17
Повідомлень: 1

2017-08-22 11:05  
Встаньте на роздачу!
Ваш часовий пояс: GMT + 2 Години

Нова тема   Відповісти