Дитина Бріджит Джонс / Bridget Jones's Baby (2016) 720p Ukr/Eng | Sub Eng

Нові коментарі

Нова тема   Відповісти
Автор Повідомлення
Anonymous 







2016-11-06 01:25  
Дитина Бріджит Джонс / Bridget Jones's Baby (2016) 720p Ukr/Eng | Sub Eng



Альтернативні постери




повнорозмірні зображення відкриються по кліку (з натиснутим CTRL чи кліком середньою кнопкою мишки - у новій вкладці)


Жанр: комедія, мелодрама
Країна: США, Велика Британія, Франція, Ірландія



Кінокомпанія: Miramax, StudioCanal, Universal Pictures, Working Title Films
Режисер: Шерон Маґвайр / Sharon Maguire
Актори: Рене Зеллвеґер / Renée Zellweger, Колін Ферт / Colin Firth, Патрік Демпсі / Patrick Dempsey, Саллі Філліпс / Sally Phillips, Бен Вілбонд / Ben Willbond, Сара Солемані / Sarah Solemani та інші

Сюжет:
Бріджит Джонс завжди мріяла про хеппі-енд. Але після офіційного розриву з Марком Дарсі, який нікуди не зник, а завжди поруч у вигляді запасного аеродрому, вона досі незаміжня, правда, з успішною кар'єрою телепродюсера. І тут життя ставить Бріджит романтичну підніжку у вигляді привабливого американця на ім'я Джек, який є повною протилежністю містера Дарсі. Віддавшись пристрасті, улюблениця всіх жінок планети виявляє, що вагітна і при цьому тільки на 50% впевнена, хто з чоловіків батько її дитини.

Офіційний український трейлер:
Альтернативний український офіційний трейлер



Рейтинг MPAA: R - особам до 17 років обов'язкова присутність батьків або дорослого опікуна
Вікова категорія: 16+

Тривалість: 02:02:38
Якість: 720p
Відео:
кодек:
розмір кадру: 1280 х 536
бітрейт: 5800 Кбіт/с

Аудіо # 1:
мова: українська
переклад: професійний дубльований | студія LeDoyen
кодек: 2.0 (стерео)
бітрейт: 192 Кбіт/с
Інформація про дубляж
Фільм дубльовано студією LeDoyen на замовлення B&H Film Distribution
Переклад: Катерина Щепковська
Режисер дубляжу: Ольга Фокіна
Звукорежисер: Олена Лапіна
Звукорежисер перезапису: Дмитро Мялковський
Координатор проекту: Ольга Боєва
Ролі дублювали: Катерина Сергєєва, Олесь Гімбаржевський, Володимир Паляниця, Христина Забара, Наталя Задніпровська, Людмила Ардельян, Інна Бєлікова, Валерія Чайковська, Дмитро Завадський, Юрій Кудрявець, Віталіна Біблів та інші
Аудіо # 2:
мова: англійська
переклад: оригінал
кодек: 5.1
бітрейт: 640 Кбіт/с

Субтитри # 1:
мова: українська (форсовані)
тип: програмні (м'які)
формат: *.srt

Субтитри # 2:
мова: англійська (SDH)
тип: програмні (м'які)
формат: *.srt

Збережено оригінальні розділи, як на Blu-ray
Info
Код:
Format                      :
Format version              : Version 4 / Version 2
File size                   : 5.68 GiB
Duration                    : 2 h 2 min
Overall bit rate            : 6 633 kb/s

Video
ID                          : 1
Format                      : AVC
Format/Info                 : Advanced Video Codec
Format profile              : [email protected]
Format settings, CABAC      : Yes
Format settings, ReFrames   : 12 frames
Codec ID                    : V_MPEG4/ISO/AVC
Duration                    : 2 h 2 min
Bit rate                    : 5 800 kb/s
Width                       : 1 280 pixels
Height                      : 536 pixels
Display aspect ratio        : 2.40:1
Frame rate mode             : Constant
Frame rate                  : 23.976 (24000/1001) FPS
Color space                 : YUV
Chroma subsampling          : 4:2:0
Bit depth                   : 8 bits
Scan type                   : Progressive
Bits/(Pixel*Frame)          : 0.353
Stream size                 : 4.97 GiB (87%)
Title                       : Дитина Бріджит Джонс / Бріджит Джонс 3 / Bridget Jones's Baby (2016) 720p [IDE; HDClub]
Writing library             : core 148 r2705 3f5ed56
Encoding settings           : cabac=1 / ref=12 / deblock=1:-3:-3 / analyse=0x3:0x133 / me=umh / subme=10 / psy=1 / psy_rd=1.05:0.00 / mixed_ref=1 / me_range=32 / chroma_me=1 / trellis=2 / 8x8dct=1 / cqm=0 / deadzone=21,11 / fast_pskip=0 / chroma_qp_offset=-2 / threads=12 / lookahead_threads=2 / sliced_threads=0 / slices=4 / nr=0 / decimate=0 / interlaced=0 / bluray_compat=0 / constrained_intra=0 / bframes=8 / b_pyramid=2 / b_adapt=2 / b_bias=0 / direct=3 / weightb=1 / open_gop=0 / weightp=2 / keyint=250 / keyint_min=23 / scenecut=40 / intra_refresh=0 / rc_lookahead=40 / rc=2pass / mbtree=0 / bitrate=5800 / ratetol=1.0 / qcomp=0.60 / qpmin=0 / qpmax=69 / qpstep=4 / cplxblur=20.0 / qblur=0.5 / vbv_maxrate=50000 / vbv_bufsize=62500 / nal_hrd=none / filler=0 / ip_ratio=1.20 / pb_ratio=1.20 / aq=3:0.80 / zones=1080,1508,b=2/167890,176430,b=0.2
Language                    : English
Default                     : Yes
Forced                      : No
Color range                 : Limited
Matrix coefficients         : BT.709

Audio #1
ID                          : 2
Format                      : AC-3
Format/Info                 : Audio Coding 3
Mode extension              : CM (complete main)
Format settings, Endianness : Big
Codec ID                    : A_AC3
Duration                    : 2 h 2 min
Bit rate mode               : Constant
Bit rate                    : 192 kb/s
Channel(s)                  : 2 channels
Channel positions           : Front: L R
Sampling rate               : 48.0 kHz
Frame rate                  : 31.250 FPS (1536 spf)
Bit depth                   : 16 bits
Compression mode            : Lossy
Stream size                 : 168 MiB (3%)
Title                       : Dub [LeDoyen, iTunes] 2.0 [stereo] 192 kbps
Language                    : Ukrainian
Default                     : Yes
Forced                      : Yes

Audio #2
ID                          : 3
Format                      : AC-3
Format/Info                 : Audio Coding 3
Mode extension              : CM (complete main)
Format settings, Endianness : Big
Codec ID                    : A_AC3
Duration                    : 2 h 2 min
Bit rate mode               : Constant
Bit rate                    : 640 kb/s
Channel(s)                  : 6 channels
Channel positions           : Front: L C R, Side: L R, LFE
Sampling rate               : 48.0 kHz
Frame rate                  : 31.250 FPS (1536 spf)
Bit depth                   : 16 bits
Compression mode            : Lossy
Stream size                 : 561 MiB (10%)
Title                       : Original, 5.1 640 kbps
Language                    : English
Default                     : No
Forced                      : No

Text #1
ID                          : 4
Format                      : UTF-8
Codec ID                    : S_TEXT/UTF8
Codec ID/Info               : UTF-8 Plain Text
Duration                    : 1 h 43 min
Bit rate                    : 2 b/s
Count of elements           : 45
Stream size                 : 2.17 KiB (0%)
Title                       : Ukr Forced [iTunes]
Language                    : Ukrainian
Default                     : Yes
Forced                      : Yes

Text #2
ID                          : 5
Format                      : UTF-8
Codec ID                    : S_TEXT/UTF8
Codec ID/Info               : UTF-8 Plain Text
Duration                    : 1 h 54 min
Bit rate                    : 79 b/s
Count of elements           : 2158
Stream size                 : 66.5 KiB (0%)
Title                       : End SDH [iTunes]
Language                    : English
Default                     : No
Forced                      : No

Menu
00:00:00.000                : en:Chapter 01
00:08:49.529                : en:Chapter 02
00:16:21.563                : en:Chapter 03
00:24:09.656                : en:Chapter 04
00:29:54.626                : en:Chapter 05
00:34:51.297                : en:Chapter 06
00:41:29.236                : en:Chapter 07
00:47:42.401                : en:Chapter 08
00:52:05.455                : en:Chapter 09
00:57:44.836                : en:Chapter 10
01:03:38.314                : en:Chapter 11
01:08:12.880                : en:Chapter 12
01:13:17.476                : en:Chapter 13
01:20:48.552                : en:Chapter 14
01:27:32.997                : en:Chapter 15
01:37:28.175                : en:Chapter 16
01:43:18.442                : en:Chapter 17
01:48:10.567                : en:Chapter 18
01:51:53.665                : en:Chapter 19
01:56:07.794                : en:Chapter 20
Порівняння скріншотів
Оригінал <----------> Ріп









Джерела та подяки: &


28.02.2017 Реліз оновлено!
Замінено відеоряд на та українську доріжку на , додано українські форсовані субтитри
Це остаточний варіант, українського звуку 5.1 на ліцензійних носіях немає і не передбачається


ЗАЛИШАЙТЕСЬ ЯКОМОГА ДОВШЕ НА РОЗДАЧІ!
ЗАВАНТАЖИВ САМ - ДАЙ ЗАВАНТАЖИТИ ІНШИМ!


 Трекер:    Зареєстрований   

Завантажити / скачати фільм українською



відео для новачків



 Зареєстрований:   2017-02-28 11:57
 Розмір:   5.68 GB 
 Оцінка фільму:   7/10 (Голосів: 42)
   
waldi-hurtom 
VIP


З нами з: 07.10.12
Востаннє: 21.09.17
Повідомлень: 676

2016-11-12 21:55  
На цьому фільмі IMDB облажався - більш ніж на трійочку не тягне. Пропоную кращу назву для цього шедевра - Психіатрічна геронтологія або Геронтологічна психіатрія.
Anonymous 







2016-11-12 22:29  
Реліз оновлено!
Замінено відеоряд з (з вшитими корейськими субтитрами) на

Прохання підтримати, золото на тиждень.

при появі якіснішого відео чи звуку реліз буде оновлено

ghost2014 
Новенький


З нами з: 31.08.13
Востаннє: 23.09.17
Повідомлень: 15

2016-11-13 05:39  
файне кiно
nataliahygienist 
Новенький


З нами з: 22.09.13
Востаннє: 03.09.17
Повідомлень: 7

2017-01-19 04:35  
Саме такого можна було чекати від Б. Джоунс.
Anonymous 







2017-02-28 11:59  
28.02.2017 Реліз оновлено!
Замінено відеоряд на та українську доріжку на
Це остаточний варіант, українського звуку 5.1 на ліцензійних носіях немає і не передбачається


Додано через 37 секунд:

прохання перезавантажити торрент та підтримати реліз, золото на тиждень

ballmart 
Новенький


З нами з: 04.11.14
Востаннє: 22.09.17
Повідомлень: 2

2017-03-07 19:00  
англ субтитри - гугл транслейт з французької.
цікаве ноу-хау.

Anonymous 







2017-03-07 19:02  
ballmart, то виберіть собі з opensubtitles.org які вам до вподоби.
Ваш часовий пояс: GMT + 2 Години

Нова тема   Відповісти