Перед Потопом / До Потопу / Before the Flood (2016) 1080p Ukr/Eng | Sub Eng

Нові коментарі

Нова тема   Відповісти
Автор Повідомлення
AngryBirdsUA 
Свій


З нами з: 24.02.10
Востаннє: 19.10.17
Повідомлень: 3037

2016-11-03 23:38  
Перед Потопом / До Потопу / Before the Flood (2016) 1080p Ukr/Eng | Sub Eng


Жанр: документальний
Країна: США



Кіностудія / кінокомпанія: National Geographic Channel, RatPac Documentary Films, Appian Way, Insurgent Docs
Режисер: Фішер Стівенс
Актори: Леонардо ДіКапріо (Leonardo DiCaprio), Ілон Маск, Біл Клінтон, Алехандро Іньяріту, Барак Обама та інші.
Сюжет:
У стрічці «До Потопу» Леонардо Ді Капріо досліджує тему зміни клімату і намагається знайти відповідь на питання, що треба зробити сьогодні, щоб запобігти катастрофічному руйнуванню життя на нашій планеті. Фільм було викладено на офіційному каналі National Geographic 30 жовтня і за добу він набрав понад 1,3 млн переглядів.
Info

Код:
Тривалість: 01:35:33
Якість: 1080p
Відео:
кодек:
розмір кадру: 1920x1080
бітрейт: 3101 кб/с
Аудіо # 1:
мова: українська
переклад: багатоголосий закадровий запис з National Geographic
Ролі озвучили: Олесь Гімбаржевський, Олександр Завальський і Тетяна Пиріжок
кодек: 2.0
бітрейт: 192 кб/с
Аудіо # 2:
мова: анґлійська
переклад: ориґінал
кодек: 5.1
бітрейт: 384 кб/с
Субтитри:
мова: анґлійська
тип: програмні (м’які)
формат: *.srt
Info:
General
Unique ID : 170799831202518354701897088359586935097 (0x807ED9D743A4DCB2B5E497C9F9653139)
Complete name : E:\Before the Flood (2016) 1080p [Ukr.Eng] [Sub Eng] [Hurtom].
Format :
Format version : Version 4 / Version 2
File size : 2.46 GiB
Duration : 1 h 35 min
Overall bit rate : 3 678 kb/s
Encoded date : UTC 2016-11-08 22:41:11
Writing application : mkvmerge v7.8.0 ('River Man') 32bit built on Apr 3 2015 12:11:22
Writing library : libebml v1.3.1 + libmatroska v1.4.2

Video
ID : 1
Format : AVC
Format/Info : Advanced Video Codec
Format profile : [email protected]
Format settings, CABAC : Yes
Format settings, ReFrames : 2 frames
Codec ID : V_MPEG4/ISO/AVC
Duration : 1 h 35 min
Bit rate : 3 101 kb/s
Width : 1 920 pixels
Height : 1 080 pixels
Display aspect ratio : 16:9
Frame rate mode : Constant
Frame rate : 23.976 FPS
Color space : YUV
Chroma subsampling : 4:2:0
Bit depth : 8 bits
Scan type : Progressive
Bits/(Pixel*Frame) : 0.062
Stream size : 2.07 GiB (84%)
Language : English
Default : Yes
Forced : No
Color range : Limited
Color primaries : BT.709
Transfer characteristics : BT.709
Matrix coefficients : BT.709

Audio #1
ID : 2
Format : AC-3
Format/Info : Audio Coding 3
Mode extension : CM (complete main)
Format settings, Endianness : Big
Codec ID : A_AC3
Duration : 1 h 35 min
Bit rate mode : Constant
Bit rate : 192 kb/s
Channel(s) : 2 channels
Channel positions : Front: L R
Sampling rate : 48.0 kHz
Frame rate : 31.250 FPS (1536 spf)
Bit depth : 16 bits
Compression mode : Lossy
Stream size : 131 MiB (5%)
Language : Ukrainian
Default : Yes
Forced : No

Audio #2
ID : 3
Format : AC-3
Format/Info : Audio Coding 3
Mode extension : CM (complete main)
Format settings, Endianness : Big
Codec ID : A_AC3
Duration : 1 h 35 min
Bit rate mode : Constant
Bit rate : 384 kb/s
Channel(s) : 6 channels
Channel positions : Front: L C R, Side: L R, LFE
Sampling rate : 48.0 kHz
Frame rate : 31.250 FPS (1536 spf)
Bit depth : 16 bits
Compression mode : Lossy
Stream size : 262 MiB (10%)
Language : English
Default : No
Forced : No

Text
ID : 4
Format : UTF-8
Codec ID : S_TEXT/UTF8
Codec ID/Info : UTF-8 Plain Text
Duration : 1 h 35 min
Bit rate : 96 b/s
Count of elements : 1637
Stream size : 67.4 KiB (0%)
Language : English
Default : Yes
Forced : No


Офіційний трейлер:


Подяки панам:

XXXVIRUS - за запис
Hanway - за синхронізацію
Gelios - за український постер


Джерело:


 Трекер:    Зареєстрований   

Завантажити / скачати фільм українською



відео для новачків



 Зареєстрований:   2016-11-09 01:57
 Розмір:   2.46 GB 
 Оцінка фільму:   7.4/10 (Голосів: 53)
   
Bod_zik99 
VIP


З нами з: 28.12.13
Востаннє: 20.10.17
Повідомлень: 1222

2016-11-04 18:07  
Шик!
tarick 
Відео Гуртом - фільмокрай
Відео Гуртом - фільмокрай


З нами з: 23.01.09
Востаннє: 20.10.17
Повідомлень: 666

2016-11-05 21:42  
А в української версії National Geographic є якась офіційна сторінка у фб чи ютуб?
Вони теоретично мали б самі цей фільм виставити у вільний доступ, так як це зробив сам National Geographic (https://www.youtube.com/watch?v=90CkXVF-Q8M).

life-men 
Частий відвідувач


З нами з: 19.04.13
Востаннє: 20.10.17
Повідомлень: 29

2016-11-07 19:58  
Чекаю уже . Сьогодні буде ?
sonjawnuk2 
Поважний учасник


З нами з: 05.04.11
Востаннє: 11.09.17
Повідомлень: 196

2016-11-07 23:46  
З іншим розширенням плануєте?
mazafaza 
Свій


З нами з: 02.01.15
Востаннє: 30.09.17
Повідомлень: 127

2016-11-09 03:10  
роздута брехня НСП,через телебачення
kinoglazz 
Новенький


З нами з: 10.03.15
Востаннє: 20.10.17
Повідомлень: 10

2016-11-09 11:19  
Дякую
Форкуш 
VIP


З нами з: 03.02.10
Востаннє: 20.10.17
Повідомлень: 1880

2016-11-09 23:39  
tarick написано:
А в української версії National Geographic є якась офіційна сторінка у фб чи ютуб?

На жаль українську редакцію закрили давно.
Фільм дуже побіжний, але цікавий. Лео робить багато і це добре. От відкриває заповідник і готель на одному зі зруйнованих островів - http://nv.ua/ukr/style/travel/leonardo-di-kaprio-vidkrije-ekologichnij-kurort-klasu-ljuks-v-karibskomu-mori-265592.html

Estranded 
VIP


З нами з: 09.02.14
Востаннє: 20.10.17
Повідомлень: 963

2016-11-11 11:47  
Непогана документалка, але я очікував більшого.
poolvetrum 
Поважний учасник


З нами з: 01.06.14
Востаннє: 20.10.17
Повідомлень: 246

2016-11-12 05:03  
Слід дивитись хоча б заради вражаючих кадрів і цікавих фактів. Але в цілому так собі. Лео там зайвий.
REsearch 
Свій


З нами з: 15.05.08
Востаннє: 04.10.17
Повідомлень: 144

2016-11-13 13:16  
poolvetrum
Я дивився заради саундтрека від Трента Резнора.

ЕНЕЙ.12 
VIP


З нами з: 18.11.13
Востаннє: 19.10.17
Повідомлень: 794

2016-11-14 16:05  
sonjawnuk2
Цитата:
З іншим розширенням плануєте?

Підтримую питання (avi? avc чи 720p)?!

Чи хто інший, щоб можна було переглянути на ноуті..?

cyberprostir 
Свій


З нами з: 15.11.09
Востаннє: 10.10.17
Повідомлень: 109

2016-11-19 22:12  
На youtube видалили чомусь.
Добре, що є толока.

ЕНЕЙ.12 
VIP


З нами з: 18.11.13
Востаннє: 19.10.17
Повідомлень: 794

2016-11-20 02:54  
Вибачте, так хтось таки підкаже (відповість), буде "по-менший" реліз для перегляду на звичайному ноуті, чи й цей "піде", бо якось не хочеться вантажити 2,46 gb даремно?!?
igor911 
Відео Гуртом
Відео Гуртом


З нами з: 18.01.08
Востаннє: 20.10.17
Повідомлень: 7931

2016-11-20 10:06  
ЕНЕЙ.12, буде avi'шка незабаром.
ЕНЕЙ.12 
VIP


З нами з: 18.11.13
Востаннє: 19.10.17
Повідомлень: 794

2016-11-20 22:49  
Дякую за відповідь, igor911 , буду чекати!
igor911 
Відео Гуртом
Відео Гуртом


З нами з: 18.01.08
Востаннє: 20.10.17
Повідомлень: 7931

2016-11-22 12:28  
yura-pro 
Частий відвідувач


З нами з: 11.10.09
Востаннє: 16.10.17
Повідомлень: 36

2016-12-15 23:42  
Нічого нового, все в стилі американців, багато слів та ніяких дій.
Ваш часовий пояс: GMT + 2 Години

Нова тема   Відповісти