Епоха честі (Сезон 3) / Czas honoru (Season 3) (2010) 720p Ukr/Pol

Нові коментарі

Нова тема   Відповісти
Автор Повідомлення
krigg070 
Відео Гуртом - фільмокрай
Відео Гуртом - фільмокрай


З нами з: 29.10.14
Востаннє: 05.12.20
Повідомлень: 1819

2016-11-01 22:03  
Епоха честі (Сезон 3) / Czas honoru (Season 3) (2010) 720p Ukr/Pol


Жанр: драма, романтичний, воєнний
Країна: Польща



Кінокомпанія: Akson Studio, Telewizja Polska
Режисер: Роб Маꥳлліврей (Rob MacGillivray), Стівен Бейвол (Steven Bawol), Філ Окс (Phil Ox)
Актори: Мачей Закосьцельнй (Maciej Zakoscielny), Якуб Весоловський (Jakub Wesolowski), Ян Вечорковскій (Jan Wieczorkowski), Єва Венкель (Ewa Wencel), Агнешка Вендлоха (Agnieszka Wiedlocha), Катажина Гневковська (Katarzyna Gniewkowska), Магдалена Ружчка (Magdalena Rózczka), Ентоні Павлицький (Antoni Pawlicki), Пєтр Адамчик (Piotr Adamczyk) та інші

Сюжет:
Історія про солдатів. яких у той час називали тіхотемними. Розповідається про диверсантів, які під час Другої світової війни в Англії пройшли навчання, щоб повернутися в окуповану нацистами Польщу з місією боротьби за незалежність.
Перелік серій
    01. Колега з Рочестера / Kolega z Rochester
    02. План Абверу / Plan Abwerhy
    03. Загін спеціального призначення / Oddzial do zadan specjalnych
    04. Зрадники / Zdrajcy
    05. Транспорт до Аушвіца / Transport do Auschwitz
    06. Інга / Inga
    07. Брати / Bracia
    08. Замах / Zamach
    09. Операція Генерал / Operacja General
    10. Останній раунд / Ostatnia runda
    11. Листівка з Хаєфа / Pocztówka z Hajfy
    12. Перед судом / Przed sadem
    13. Вечір в Едемському саду / Wieczór w Edenie
Тривалість: 1 серія: ~45 хв. (цілком серій: 13)
Якість:
Відео:
кодек:
розмір кадру: 1280 х 720
бітрейт: ~3000 кб/с

Аудіо # 1:
мова: українська
переклад: двоголосий закадровий [КІТ]
кодек: 2.0
бітрейт: 192 кб/с

Аудіо # 2:
мова: польська
переклад: оригінал
кодек: 2.0 (з 7 серії 5.1)
бітрейт: 384 кб/с
Запис з телеканалу:
Скріншоти
Info
Код:
Video
ID                             : 1
Format                         : AVC
Format/Info                    : Advanced Video Codec
Format profile                 : [email protected]
Format settings, CABAC         : Yes
Format settings, ReFrames      : 4 frames
Codec ID                       : V_MPEG4/ISO/AVC
Duration                       : 44mn 9s
Bit rate                       : 2 853 Kbps
Width                          : 1 280 pixels
Height                         : 720 pixels
Display aspect ratio           : 16:9
Frame rate mode                : Constant
Frame rate                     : 25.000 fps
Color space                    : YUV
Chroma subsampling             : 4:2:0
Bit depth                      : 8 bits
Scan type                      : Progressive
Bits/(Pixel*Frame)             : 0.124
Stream size                    : 901 MiB (83%)
Writing library                : core 125 r2200 999b753
Encoding settings              : cabac=1 / ref=3 / deblock=1:0:0 / analyse=0x3:0x113 / me=hex / subme=7 / psy=1 / psy_rd=1.00:0.00 / mixed_ref=1 / me_range=16 / chroma_me=1 / trellis=1 / 8x8dct=1 / cqm=0 / deadzone=21,11 / fast_pskip=1 / chroma_qp_offset=-2 / threads=6 / lookahead_threads=1 / sliced_threads=0 / nr=0 / decimate=1 / interlaced=0 / bluray_compat=0 / constrained_intra=0 / bframes=3 / b_pyramid=2 / b_adapt=1 / b_bias=0 / direct=1 / weightb=1 / open_gop=0 / weightp=2 / keyint=250 / keyint_min=25 / scenecut=40 / intra_refresh=0 / rc_lookahead=40 / rc=2pass / mbtree=1 / bitrate=2853 / ratetol=1.0 / qcomp=0.60 / qpmin=0 / qpmax=69 / qpstep=4 / cplxblur=20.0 / qblur=0.5 / vbv_maxrate=50000 / vbv_bufsize=50000 / nal_hrd=none / ip_ratio=1.40 / aq=1:1.00
Default                        : Yes
Forced                         : No

Audio #1
ID                             : 2
Format                         : AC-3
Format/Info                    : Audio Coding 3
Mode extension                 : CM (complete main)
Format settings, Endianness    : Big
Codec ID                       : A_AC3
Duration                       : 44mn 8s
Bit rate mode                  : Constant
Bit rate                       : 192 Kbps
Channel(s)                     : 2 channels
Channel positions              : Front: L R
Sampling rate                  : 48.0 KHz
Frame rate                     : 31.250 fps (1536 spf)
Compression mode               : Lossy
Stream size                    : 60.6 MiB (6%)
Title                          : 2.0 @ 192 kbps - KIT
Language                       : Ukrainian
Default                        : Yes
Forced                         : No

Audio #2
ID                             : 3
Format                         : AC-3
Format/Info                    : Audio Coding 3
Mode extension                 : CM (complete main)
Format settings, Endianness    : Big
Codec ID                       : A_AC3
Duration                       : 44mn 9s
Bit rate mode                  : Constant
Bit rate                       : 384 Kbps
Channel(s)                     : 6 channels
Channel positions              : Front: L C R, Side: L R, LFE
Sampling rate                  : 48.0 KHz
Frame rate                     : 31.250 fps (1536 spf)
Compression mode               : Lossy
Stream size                    : 121 MiB (11%)
Title                          : 5.1 @ 384 kbps - Original
Language                       : Polish
Default                        : No
Forced                         : No
Джерело:


Бронзовий реліз (на рейтинг впливає 75% завантаженого)
 Трекер:    Зареєстрований   

Завантажити / скачати серіал українською



відео для новачків



 Зареєстрований:   2016-11-02 23:21
 Розмір:   15.66 GB 
 Оцінка серіалу:   9.5/10 (Голосів: 15)
   
bot 
робот


З нами з: 30.09.07
Востаннє: 26.05.05
Повідомлень: 26481

2016-11-02 23:21  
Тему перенесено з Анонси релізів до форуму Серіали в HD


krigg070

and2006 
Новенький


З нами з: 25.12.16
Востаннє: 04.12.20
Повідомлень: 4

2017-01-27 14:28  
Можу стати на роздачу (1-2 сезон) Але попередньо сам хотів завантажити
Sentinel73 
Частий відвідувач


З нами з: 25.08.11
Востаннє: 25.11.20
Повідомлень: 38

2020-02-26 00:26  
Дякую!
Ваш часовий пояс: GMT + 2 Години

Нова тема   Відповісти