У пошуках Дорi / Finding Dory (2016) 1080p 3D [HalfOverUnder] Ukr/Eng | Sub Eng

Нові коментарі

Нова тема   Відповісти
Автор Повідомлення
-VipeR- 
VIP


З нами з: 17.07.08
Востаннє: 16.08.17
Повідомлень: 289

2016-10-28 17:07  
У пошуках Дорi / Finding Dory (2016) 1080p 3D [HalfOverUnder] Ukr/Eng | Sub Eng

У пошуках Дорi / Finding Dory (2016) 1080p 3D [HalfOverUnder] Ukr/Eng | Sub Eng


Жанр: анімація, комедія, пригодницький, сімейний
Країна: США



Кінокомпанія: Pixar Animation Studios, Walt Disney Pictures
Режисер: Ендрю Стентон / Andrew Stanton, Енгус МакЛейн / Angus MacLane
Актори: Еллен ДеДженерес / Ellen DeGeneres, Альберт Брукс / Albert Brooks, Ідріс Ельба / Idris Elba, Дайана Кітон / Diane Keaton, Кейт МакКіннон / Kate McKinnon, Домінік Вест / Dominic West, Кейтлін Олсон / Kaitlin Olson, Сіґурні Вівер / Sigourney Weaver та інші

Сюжет:
Продовження мультфільму про рибу-клоуна та інших мешканців підводного світу "У пошуках Немо". Події відбуваються через рік після першої частини. Подруга Немо, риба-хірург Дорі, яка страждає провалами в пам'яті, раптово згадує своє дитинство. Вона стає одержима ідеєю знайти свою родину і відправляється у подорож разом з Немо та Марліном. Друзі відвідують Монтерейський інститут морського життя, де зустрічають китову акулу Дестіні, білуху Бейлі та восьминога Генка. Останній стане важливою ланкою у пошуках Дорі.


Тривалість: 01:37:03
Якість: 1080p 3D [HalfOverUnder] by Amstaff
Відео:
кодек:
розмір кадру: 1920 х 1080
бітрейт: 14.2 мбіт/с

Аудіо # 1:
мова: українська
переклад: професійний дубльований
кодек: 2.0
бітрейт: 192 кб/с
Інформація про дубляж

Ролі дублювали: Тетяна Зіновенко, Кирило Нікітенко, Вікторія Москаленко, Єгор Скороходько, Олександр Погребняк, Олег Лепенець, Ольга Гарбузюк, Євген Сінчуков, Микола Боклан, В'ячеслав Дудко, Алла Мазур, Михайло Федорченко, Ігор Гнізділов, Олена Колеснікова, Єлизавета Зіновенко, Дмитро Зленко, Анатолій Яцечко, Наталя Надірадзе, Дмитро Тварковський, Володимир Канівець.
Аудіо # 2:
мова: англійська
переклад: оригінал
кодек: 5.1
бітрейт: 640 кб/с

Субтитри:
мова: англійська
тип: програмні (м'які)
формат: *.srt
Info
Код:
General
Unique ID                      : 247425310699046472268203105585275604606 (0xBA2461A9298873F99BEEEB0DBFF00E7E)
Complete name                  : D:\3D\Мультики\Finding Dory (2016) 1080p 3D [HalfOverUnder] Ukr Eng Sub Eng.
Format                         :
Format version                 : Version 4 / Version 2
File size                      : 10.2 GiB
Duration                       : 1h 37mn
Overall bit rate               : 15.0 Mbps
Movie name                     : У пошуках Дорi  / Finding Dory 3D
Encoded date                   : UTC 2016-10-28 13:39:32
Writing application            : mkvmerge v8.8.0 ('Wind at my back') 64bit
Writing library                : libebml v1.3.3 + libmatroska v1.4.4
Cover                          : Yes
Attachments                    : cover.jpg

Video
ID                             : 1
Format                         : AVC
Format/Info                    : Advanced Video Codec
Format profile                 : [email protected]
Format settings, CABAC         : Yes
Format settings, ReFrames      : 2 frames
Codec ID                       : V_MPEG4/ISO/AVC
Duration                       : 1h 37mn
Bit rate                       : 14.2 Mbps
Width                          : 1 920 pixels
Height                         : 1 080 pixels
Display aspect ratio           : 16:9
Frame rate mode                : Constant
Frame rate                     : 23.976 (24000/1001) fps
Color space                    : YUV
Chroma subsampling             : 4:2:0
Bit depth                      : 8 bits
Scan type                      : Progressive
Bits/(Pixel*Frame)             : 0.286
Stream size                    : 9.62 GiB (94%)
Default                        : Yes
Forced                         : No

Audio #1
ID                             : 2
Format                         : AC-3
Format/Info                    : Audio Coding 3
Mode extension                 : CM (complete main)
Format settings, Endianness    : Big
Codec ID                       : A_AC3
Duration                       : 1h 37mn
Bit rate mode                  : Constant
Bit rate                       : 192 Kbps
Channel(s)                     : 2 channels
Channel positions              : Front: L R
Sampling rate                  : 48.0 KHz
Frame rate                     : 31.250 fps (1536 spf)
Compression mode               : Lossy
Stream size                    : 133 MiB (1%)
Title                          : Dub [iTunes] 2.0 192 Kbps
Language                       : Ukrainian
Default                        : Yes
Forced                         : No

Audio #2
ID                             : 3
Format                         : AC-3
Format/Info                    : Audio Coding 3
Mode extension                 : CM (complete main)
Format settings, Endianness    : Big
Codec ID                       : A_AC3
Duration                       : 1h 37mn
Bit rate mode                  : Constant
Bit rate                       : 640 Kbps
Channel(s)                     : 6 channels
Channel positions              : Front: L C R, Side: L R, LFE
Sampling rate                  : 48.0 KHz
Frame rate                     : 31.250 fps (1536 spf)
Compression mode               : Lossy
Delay relative to video        : 27ms
Stream size                    : 444 MiB (4%)
Language                       : English
Default                        : No
Forced                         : No

Text
ID                             : 4
Format                         : UTF-8
Codec ID                       : S_TEXT/UTF8
Codec ID/Info                  : UTF-8 Plain Text
Duration                       : 1h 35mn
Bit rate                       : 81 bps
Count of elements              : 1472
Stream size                    : 57.1 KiB (0%)
Language                       : English
Default                        : No
Forced                         : No

Menu
00:00:00.000                   : en:1
00:02:35.000                   : en:2
00:06:47.000                   : en:3
00:11:01.000                   : en:4
00:13:32.000                   : en:5
00:15:25.000                   : en:6
00:17:03.000                   : en:7
00:19:35.000                   : en:8
00:21:35.000                   : en:9
00:24:58.000                   : en:10
00:27:08.000                   : en:11
00:30:33.000                   : en:12
00:34:59.000                   : en:13
00:37:52.000                   : en:14
00:40:18.000                   : en:15
00:41:06.000                   : en:16
00:42:30.000                   : en:17
00:46:03.000                   : en:18
00:48:41.000                   : en:19
00:50:28.000                   : en:20
00:55:06.000                   : en:21
00:57:06.000                   : en:22
01:00:41.000                   : en:23
01:04:32.000                   : en:24
01:10:36.000                   : en:25
01:12:28.000                   : en:26
01:14:09.000                   : en:27
01:18:26.000                   : en:28
01:26:49.000                   : en:29
Скріншоти




Відео для перегляду на 3D обладнанні!


 Трекер:    Зареєстрований   

Завантажити / скачати мультфільм українською



відео для новачків



 Зареєстрований:   2016-10-28 17:07
 Розмір:   10.19 GB 
 Оцінка мультфільму:   9.9/10 (Голосів: 7)
   
Інші релізи
His_Infernal_Majesty 
Новенький


З нами з: 01.12.14
Востаннє: 16.08.17
Повідомлень: 23

2017-01-11 16:43  
Не зачепив... Хіба що в плані 3D...
Ваш часовий пояс: GMT + 2 Години

Нова тема   Відповісти