Сім'янин / Гріфіни (Сезони 12-15) / Family Guy (Seasons 12-15) (2013-2017) 720p Ukr/Eng | Sub Eng

Нові коментарі

Нова тема   Відповісти
Автор Повідомлення
Dark Invader 
Модератор відео


З нами з: 06.01.11
Востаннє: 23.06.17
Повідомлень: 2008

2016-10-28 00:05  
Сім'янин / Гріфіни (Сезони 12-15) / Family Guy (Seasons 12-15) (2013-2017) 720p Ukr/Eng | Sub Eng

Сім'янин / Гріфіни (Сезони 12-15) / Family Guy (Seasons 12-15) (2013-2017) 720p Ukr/Eng | Sub Eng


Жанр: анімація, комедія, пародія, ситком
Країна: США



Кінокомпанія: Fuzzy Door Productions, Fox Television Animation, 20th Century Fox Television / Fox
Режисер: Сет МакФарлейн та інші
Актори: Сет МакФарлейн, Алекс Борштейн, Сет Грін, Міла Куніс, Майк Генрі та інші

Сюжет:
"Сім'янин" ("Гріфіни") - американський комедійний мультсеріал про життя звичайної американської родини, що проживає в Куахозі, вигаданому передмісті штату Провіденс, столиці Род-Айленда.
Серіал носить в собі елементи сатири, в якій висміюються недоліки американської дійсності, в тому числі зовнішня і внутрішня політика США, расова дискримінація та інші проблеми.


Сім'янин / Гріфіни (Сезон 12) / Family Guy (Season 12) (2013-2014) 720p Ukr/Eng
Сім'янин / Гріфіни (Сезон 12) / Family Guy (Season 12) (2013-2014) 720p Ukr/Eng

Сім'янин / Гріфіни (Сезони 12-15) / Family Guy (Seasons 12-15) (2013-2017) 720p Ukr/Eng | Sub Eng


Жанр: анімація, комедія, пародія, ситком
Країна: США



Кінокомпанія: Fuzzy Door Productions, Fox Television Animation, 20th Century Fox Television / Fox
Режисер: Сет МакФарлейн та інші
Актори: Сет МакФарлейн, Алекс Борштейн, Сет Грін, Міла Куніс, Майк Генрі та інші

Сюжет:
"Сім'янин" ("Гріфіни") - американський комедійний мультсеріал про життя звичайної американської родини, що проживає в Куахозі, вигаданому передмісті штату Провіденс, столиці Род-Айленда.
Серіал носить в собі елементи сатири, в якій висміюються недоліки американської дійсності, в тому числі зовнішня і внутрішня політика США, расова дискримінація та інші проблеми.


Тривалість: 1 серія: ~ 22 хв. (цілком серій: 21)
Перелік серій
01. Finders Keepers
02. Vestigial Peter
03. Quagmire's Quagmire
04. A Fistful of Meg
05. Boopa-dee Bappa-dee
06. Life of Brian
07. Into Harmony's Way
08. Christmas Guy
09. Peter Problems
10. Grimm Job
11. Brian's a Bad Father
12. Mom's the Word
13. 3 Acts of God
14. Fresh Heir
15. Secondhand Spoke
16. Herpe the Love Sore
17. The Most Interesting Man in the World
18. Baby Got Black
19. Meg Stinks!
20. He's Bla-ack!
21. Chap Stewie
Якість: 720p
Відео:
кодек:
розмір кадру: 1280 х 718
бітрейт: ~ 2 500 кб/с

Аудіо # 1:
мова: українська
переклад: професійний дубльований
кодек: 2.0
бітрейт: 192 кб/с

Аудіо # 2:
мова: англійська
переклад: оригінал
кодек: 5.1
бітрейт: 384 кб/с

Переклад і озвучення виконано:
студією "Так Треба Продакшн" на замовлення телеканалу
Інформація про дубляж:
Ролі дублювали: Роман Семисал, Марина Локтіонова, Дмитро Терещук, Павло Скороходько та інші.
Info
General
Unique ID : 172659071604605069260567249280815132370 (0x81E4ED78547E49C28217BDC0C9C4EED2)
Complete name : D:\Нова папка\Family Guy - Season 12 (2013-2014) 720p [Ukr, Eng] [Hurtom] by Dark Invader\[12x01] Finders Keepers [Ukr, Eng] 720p [Hurtom].
Format :
Format version : Version 4 / Version 2
File size : 505 MiB
Duration : 21 min
Overall bit rate : 3 269 kb/s
Encoded date : UTC 2016-10-25 20:19:40
Writing application : mkvmerge v9.4.0 ('Knurl') 32bit
Writing library : libebml v1.3.4 + libmatroska v1.4.5

Video
ID : 1
Format : AVC
Format/Info : Advanced Video Codec
Format profile : [email protected]
Format settings, CABAC : No
Format settings, ReFrames : 2 frames
Codec ID : V_MPEG4/ISO/AVC
Duration : 21 min
Bit rate : 2 691 kb/s
Width : 1 280 pixels
Height : 718 pixels
Display aspect ratio : 16:9
Frame rate mode : Constant
Frame rate : 23.976 (24000/1001) FPS
Color space : YUV
Chroma subsampling : 4:2:0
Bit depth : 8 bits
Scan type : Progressive
Bits/(Pixel*Frame) : 0.122
Stream size : 416 MiB (82%)
Default : Yes
Forced : No
Color range : Limited
Color primaries : BT.709
Transfer characteristics : BT.709
Matrix coefficients : BT.709

Audio #1
ID : 2
Format : AC-3
Format/Info : Audio Coding 3
Mode extension : CM (complete main)
Format settings, Endianness : Big
Codec ID : A_AC3
Duration : 21 min
Bit rate mode : Constant
Bit rate : 192 kb/s
Channel(s) : 2 channels
Channel positions : Front: L R
Sampling rate : 48.0 kHz
Frame rate : 31.250 FPS (1536 spf)
Compression mode : Lossy
Stream size : 29.7 MiB (6%)
Title : Так Треба Продакшн
Language : Ukrainian
Default : Yes
Forced : No

Audio #2
ID : 3
Format : AC-3
Format/Info : Audio Coding 3
Mode extension : CM (complete main)
Format settings, Endianness : Big
Codec ID : A_AC3
Duration : 21 min
Bit rate mode : Constant
Bit rate : 384 kb/s
Channel(s) : 6 channels
Channel positions : Front: L C R, Side: L R, LFE
Sampling rate : 48.0 kHz
Frame rate : 31.250 FPS (1536 spf)
Compression mode : Lossy
Stream size : 59.3 MiB (12%)
Title : Original
Language : English
Default : No
Forced : No
Скріншоти:


Джерело: &
Особиста оцінка: 10 - без зайвих вагань рекомендую всім!

Цитата:
Подяки:
За запис andic, POMEO, Петров Микола.
За синхронізацію Dark Invader.
Сім'янин / Гріфіни (Сезон 13) / Family Guy (Season 13) (2014-2015) 720p 2xUkr/Eng | Sub Eng
Сім'янин / Гріфіни (Сезон 13) / Family Guy (Season 13) (2014-2015) 720p 2xUkr/Eng | Sub Eng

Сім'янин / Гріфіни (Сезони 12-15) / Family Guy (Seasons 12-15) (2013-2017) 720p Ukr/Eng | Sub Eng


Жанр: анімація, комедія, пародія, ситком
Країна: США



Кінокомпанія: Fuzzy Door Productions, Fox Television Animation, 20th Century Fox Television / Fox
Режисер: Сет МакФарлейн та інші
Актори: Сет МакФарлейн, Алекс Борштейн, Сет Грін, Міла Куніс, Майк Генрі та інші

Сюжет:
"Сім'янин" ("Гріфіни") - американський комедійний мультсеріал про життя звичайної американської родини, що проживає в Куахозі, вигаданому передмісті штату Провіденс, столиці Род-Айленда.
Серіал носить в собі елементи сатири, в якій висміюються недоліки американської дійсності, в тому числі зовнішня і внутрішня політика США, расова дискримінація та інші проблеми.


Тривалість: 1 серія: ~ 22 хв. (цілком серій: 18)
Перелік серій
01. The Simpsons Guy
02. The Book of Joe
03. Baking Bad
04. Brian the Closer
05. Turkey Guys
06. The 2000-Year-Old Virgin
07. Stewie, Chris & Brian's Excellent Adventure
08. Our Idiot Brian
09. This Little Piggy
10. Quagmire's Mom
11. Encyclopedia Griffin
12. Stewie is Enceinte
13. Dr. C & the Women
14. JOLO
15. Once Bitten
16. Roasted Guy
17. Fighting Irish
18. Take My Wife
Якість: 720p
Відео:
кодек:
розмір кадру: 1280 х 720
бітрейт: ~ 3 000 кб/с

Аудіо # 1:
мова: українська
переклад: професійний дубльований
кодек: 2.0
бітрейт: 192 кб/с

Переклад і озвучення виконано:
студією "Так Треба Продакшн" на замовлення телеканалу
Інформація про дубляж:
Ролі дублювали: Роман Семисал, Марина Локтіонова, Дмитро Терещук, Павло Скороходько та інші.
Аудіо *: [1 серія]
мова: українська
переклад: професійний дубльований
кодек: 2.0
бітрейт: 192 кб/с

Переклад і озвучення виконано:
творчою спільнотою "Струґачка" за участі студій "ДО-РЕ-МІ" та "Golden Voice".
Інформація про дубляж:
Переклад: Дмитро Шостак
Ролі дублювали: Євген Малуха, Юрій Коваленко, Катерина Качан, Ганна Левченко, Євген Сінчуков, Олекса Мельник, Ніна Тараруєва, Михайло Карпань, М'яч Дредболл, Вікторія Жуковська, Мар'яна Янкевич, Юліан Грицевич, Ігор Анісімов, Денис Швецов та Михайло Литвин.
Аудіо # 2:
мова: англійська
переклад: оригінал
кодек: 5.1
бітрейт: 384 кб/с

Субтитри:
мова: англійська
тип: програмні (м'які)
формат: *.srt
Info
General
Unique ID : 228050057384925137835143192755456156329 (0xAB90D7EB451F7CF2B6FFE143872BA2A9)
Complete name : D:\Нова папка\Family Guy - 720p [Ukr, Eng] [Hurtom]\Season 13 (2014-2015) 720p [Ukr.Eng, Sub Eng] [Hurtom]\[13x01] The Simpsons Guy [2xUkr.Eng, Sub Eng] 720p [Hurtom].
Format :
Format version : Version 4 / Version 2
File size : 1.38 GiB
Duration : 43 min
Overall bit rate : 4 511 kb/s
Movie name : Family Guy Season 13 ( | 720p | v.serij2013)
Encoded date : UTC 2017-03-23 09:06:54
Writing application : mkvmerge v9.8.0 ('Kuglblids') 32bit
Writing library : libebml v1.3.4 + libmatroska v1.4.5

Video
ID : 1
Format : AVC
Format/Info : Advanced Video Codec
Format profile : [email protected]
Format settings, CABAC : No
Format settings, ReFrames : 2 frames
Codec ID : V_MPEG4/ISO/AVC
Duration : 43 min
Bit rate : 3 741 kb/s
Width : 1 280 pixels
Height : 720 pixels
Display aspect ratio : 16:9
Frame rate mode : Constant
Frame rate : 23.976 (23976/1000) FPS
Color space : YUV
Chroma subsampling : 4:2:0
Bit depth : 8 bits
Scan type : Progressive
Bits/(Pixel*Frame) : 0.169
Stream size : 1.14 GiB (83%)
Language : English
Default : Yes
Forced : No
Color range : Limited
Color primaries : BT.709
Transfer characteristics : BT.709
Matrix coefficients : BT.709

Audio #1
ID : 2
Format : AC-3
Format/Info : Audio Coding 3
Mode extension : CM (complete main)
Format settings, Endianness : Big
Codec ID : A_AC3
Duration : 43 min
Bit rate mode : Constant
Bit rate : 192 kb/s
Channel(s) : 2 channels
Channel positions : Front: L R
Sampling rate : 48.0 kHz
Frame rate : 31.250 FPS (1536 spf)
Compression mode : Lossy
Stream size : 60.0 MiB (4%)
Title : Так Треба Продакшн
Language : Ukrainian
Default : Yes
Forced : No

Audio #2
ID : 3
Format : AC-3
Format/Info : Audio Coding 3
Mode extension : CM (complete main)
Format settings, Endianness : Big
Codec ID : A_AC3
Duration : 43 min
Bit rate mode : Constant
Bit rate : 192 kb/s
Channel(s) : 2 channels
Channel positions : Front: L R
Sampling rate : 48.0 kHz
Frame rate : 31.250 FPS (1536 spf)
Compression mode : Lossy
Stream size : 60.0 MiB (4%)
Title : Т.С. Cтруґачка
Language : Ukrainian
Default : No
Forced : No

Audio #3
ID : 4
Format : AC-3
Format/Info : Audio Coding 3
Mode extension : CM (complete main)
Format settings, Endianness : Big
Codec ID : A_AC3
Duration : 43 min
Bit rate mode : Constant
Bit rate : 384 kb/s
Channel(s) : 6 channels
Channel positions : Front: L C R, Side: L R, LFE
Sampling rate : 48.0 kHz
Frame rate : 31.250 FPS (1536 spf)
Compression mode : Lossy
Stream size : 120 MiB (9%)
Title : Original
Language : English
Default : No
Forced : No

Text
ID : 5
Format : UTF-8
Codec ID : S_TEXT/UTF8
Codec ID/Info : UTF-8 Plain Text
Duration : 43 min
Bit rate : 90 b/s
Count of elements : 959
Stream size : 28.5 KiB (0%)
Title : Full
Language : English
Default : No
Forced : No
Скріншоти:


Джерело: &
Особиста оцінка: 10 - без зайвих вагань рекомендую всім!

Цитата:
Подяки:
За запис andic, Петров Микола.
За синхронізацію Dark Invader.
Сім'янин / Гріфіни (Сезон 14) / Family Guy (Season 14) (2015-2016) 720p 2xUkr/Eng | Sub Eng
Сім'янин / Гріфіни (Сезон 14) / Family Guy (Season 14) (2015-2016) 720p 2xUkr/Eng | Sub Eng

Сім'янин / Гріфіни (Сезони 12-15) / Family Guy (Seasons 12-15) (2013-2017) 720p Ukr/Eng | Sub Eng


Жанр: анімація, комедія, пародія, ситком
Країна: США



Кінокомпанія: Fuzzy Door Productions, Fox Television Animation, 20th Century Fox Television / Fox
Режисер: Сет МакФарлейн та інші
Актори: Сет МакФарлейн, Алекс Борштейн, Сет Грін, Міла Куніс, Майк Генрі та інші

Сюжет:
"Сім'янин" ("Гріфіни") - американський комедійний мультсеріал про життя звичайної американської родини, що проживає в Куахозі, вигаданому передмісті штату Провіденс, столиці Род-Айленда.
Серіал носить в собі елементи сатири, в якій висміюються недоліки американської дійсності, в тому числі зовнішня і внутрішня політика США, расова дискримінація та інші проблеми.


Тривалість: 1 серія: ~ 22 хв. (цілком серій: 20)
Перелік серій
01. Pilling Them Softly
02. Papa Has a Rollin Son
03. Guy Robot
04. Peternormal Activity
05. Peter Chris & Brian
06. Peter's Sister
07. Hot Pocket-Dial
08. Brokeback Swanson
09. A Shot in the Dark
10. Candy Quahog Marshmallow
11. The Peanut Butter Kid
12. Scammed Yankees
13. An App a Day
14. Underage Peter
15. A Lot Going On Upstairs
16. The Heartbreak Dog
17. Take a Letter
18. The New Adventures of Old Tom
19. Run Chris Run
20. Road to India
Якість: 720p
Відео:
кодек:
розмір кадру: 1280 х 720
бітрейт: ~ 3 000 кб/с

Аудіо # 1:
мова: українська
переклад: професійний дубльований
кодек: 2.0
бітрейт: 192 кб/с

Переклад і озвучення виконано:
студією "Так Треба Продакшн" на замовлення телеканалу
Інформація про дубляж:
Ролі дублювали: Роман Семисал, Марина Локтіонова, Дмитро Терещук, Павло Скороходько та інші.
Аудіо # 2: [1-5 серії]
мова: українська
переклад: аматорський дубльований
кодек: 2.0
бітрейт: 192 кб/с

Переклад і озвучення виконано:
творчою спільнотою "Струґачка".
Інформація про дубляж:
Переклад: Юрій Клічук.
Редакція: Дмитро Шостак та Михайло Карпань.
Ролі дублювали: Дмитро Буґлаєв, Олекса Мельник, Михайло Карпань, Євгеній Сардаров, Вікторія Жуковська, Дредбол, Юліан Грицевич, Ніна Тараруєва, Олександр Солодкий та голосові актори команди FanVoxUa: Мар'яна Янкевич (MariAm), Ігор Анісімов (AdrianZP) та Денис Швецов (Rendaros).
Аудіо # 3:
мова: англійська
переклад: оригінал
кодек: 5.1
бітрейт: 384 кб/с

Субтитри:
мова: англійська
тип: програмні (м'які)
формат: *.srt
Info
General
Unique ID : 223764365828594560634801075241218619807 (0xA8577302F0A49F6A83A75396C4DA399F)
Complete name : D:\Нова папка\Family Guy - Season 14 (2015-2016) 720p [Ukr.Eng, Sub Eng] [Hurtom] by Dark Invader\[14x02] Papa Has a Rollin Son [2xUkr.Eng, Sub Eng] 720p [Hurtom].
Format :
Format version : Version 4 / Version 2
File size : 675 MiB
Duration : 21 min
Overall bit rate : 4 363 kb/s
Encoded date : UTC 2016-12-01 11:56:52
Writing application : mkvmerge v9.4.0 ('Knurl') 32bit
Writing library : libebml v1.3.4 + libmatroska v1.4.5

Video
ID : 1
Format : AVC
Format/Info : Advanced Video Codec
Format profile : [email protected]
Format settings, CABAC : No
Format settings, ReFrames : 2 frames
Codec ID : V_MPEG4/ISO/AVC
Duration : 21 min
Bit rate : 3 592 kb/s
Width : 1 280 pixels
Height : 720 pixels
Display aspect ratio : 16:9
Frame rate mode : Constant
Frame rate : 23.976 (24000/1001) FPS
Color space : YUV
Chroma subsampling : 4:2:0
Bit depth : 8 bits
Scan type : Progressive
Bits/(Pixel*Frame) : 0.163
Stream size : 556 MiB (82%)
Language : English
Default : Yes
Forced : No
Color range : Limited
Color primaries : BT.709
Transfer characteristics : BT.709
Matrix coefficients : BT.709

Audio #1
ID : 2
Format : AC-3
Format/Info : Audio Coding 3
Mode extension : CM (complete main)
Format settings, Endianness : Big
Codec ID : A_AC3
Duration : 21 min
Bit rate mode : Constant
Bit rate : 192 kb/s
Channel(s) : 2 channels
Channel positions : Front: L R
Sampling rate : 48.0 kHz
Frame rate : 31.250 FPS (1536 spf)
Compression mode : Lossy
Stream size : 29.7 MiB (4%)
Title : Так Треба Продакшн
Language : Ukrainian
Default : Yes
Forced : No

Audio #2
ID : 3
Format : AC-3
Format/Info : Audio Coding 3
Mode extension : CM (complete main)
Format settings, Endianness : Big
Codec ID : A_AC3
Duration : 21 min
Bit rate mode : Constant
Bit rate : 192 kb/s
Channel(s) : 2 channels
Channel positions : Front: L R
Sampling rate : 48.0 kHz
Frame rate : 31.250 FPS (1536 spf)
Compression mode : Lossy
Stream size : 29.7 MiB (4%)
Title : Т.С. Cтруґачка
Language : Ukrainian
Default : No
Forced : No

Audio #3
ID : 4
Format : AC-3
Format/Info : Audio Coding 3
Mode extension : CM (complete main)
Format settings, Endianness : Big
Codec ID : A_AC3
Duration : 21 min
Bit rate mode : Constant
Bit rate : 384 kb/s
Channel(s) : 6 channels
Channel positions : Front: L C R, Side: L R, LFE
Sampling rate : 48.0 kHz
Frame rate : 31.250 FPS (1536 spf)
Compression mode : Lossy
Delay relative to video : 25 ms
Stream size : 59.4 MiB (9%)
Title : Original
Language : English
Default : No
Forced : No

Text
ID : 5
Format : UTF-8
Codec ID : S_TEXT/UTF8
Codec ID/Info : UTF-8 Plain Text
Duration : 20 min
Bit rate : 119 b/s
Count of elements : 598
Stream size : 18.3 KiB (0%)
Title : Full
Language : English
Default : No
Forced : No
Скріншоти:


Джерело: &
Особиста оцінка: 10 - без зайвих вагань рекомендую всім!

Цитата:
Подяки:
За запис andic, Петров Микола.
За синхронізацію Dark Invader.
За постер Данил Земляний.
Сім'янин / Гріфіни (Сезон 15) / Family Guy (Season 15) (2016-2017) 720p Ukr/Eng | Sub Eng
Сім'янин / Гріфіни (Сезон 15) / Family Guy (Season 15) (2016-2017) 720p Ukr/Eng | Sub Eng

Сім'янин / Гріфіни (Сезони 12-15) / Family Guy (Seasons 12-15) (2013-2017) 720p Ukr/Eng | Sub Eng


Жанр: анімація, комедія, пародія, ситком
Країна: США



Кінокомпанія: Fuzzy Door Productions, Fox Television Animation, 20th Century Fox Television / Fox
Режисер: Сет МакФарлейн та інші
Актори: Сет МакФарлейн, Алекс Борштейн, Сет Грін, Міла Куніс, Майк Генрі та інші

Сюжет:
"Сім'янин" ("Гріфіни") - американський комедійний мультсеріал про життя звичайної американської родини, що проживає в Куахозі, вигаданому передмісті штату Провіденс, столиці Род-Айленда.
Серіал носить в собі елементи сатири, в якій висміюються недоліки американської дійсності, в тому числі зовнішня і внутрішня політика США, расова дискримінація та інші проблеми.


Тривалість: 1 серія: ~ 22 хв. (цілком серій: 20)
Перелік серій
01. The Boys in the Band
02. Bookie of the Year
03. American Gigg-olo
04. Inside Family Guy
05. Chris Has Got a Date, Date, Date, Date, Date
06. Hot Shots
07. High School English
08. Carter and Tricia
09. How the Griffin Stole Christmas
10. Passenger Fatty-Seven
11. Gronkowsbees
12. Peter's Def Jam
13. The Finer Strings
14. The Dating Game
15. Cop and a Half-wit
16. Saturated Fat Guy
17. Peter's Lost Youth
18. The Peter Principal
19. Dearly Deported
20. A House Full of Peters
Якість: 720p
Відео:
кодек:
розмір кадру: 1280 х 720
бітрейт: ~ 3 500 кб/с

Аудіо # 1:
мова: українська
переклад: професійний дубльований
кодек: 2.0
бітрейт: 192 кб/с

Аудіо # 2:
мова: англійська
переклад: оригінал
кодек: 5.1
бітрейт: 384 кб/с

Переклад і озвучення виконано:
студією "Так Треба Продакшн" на замовлення телеканалу
Інформація про дубляж:
Ролі дублювали: Роман Семисал, Марина Локтіонова, Дмитро Терещук, Павло Скороходько та інші.
Субтитри:
мова: англійська
тип: програмні (м'які)
формат: *.srt
Info
General
Unique ID : 243019674997051057216750078264570644719 (0xB6D3E30CE00265C3921D0A0E0A7988EF)
Complete name : D:\Нова папка\Family Guy - Season 15 (2016-2017) 720p [Ukr.Eng, Sub Eng] [Hurtom] by Dark Invader\[15x02] Bookie of the Year [Ukr.Eng, Sub Eng] 720p [Hurtom].
Format :
Format version : Version 4 / Version 2
File size : 689 MiB
Duration : 21 min
Overall bit rate : 4 464 kb/s
Encoded date : UTC 2016-11-14 20:15:26
Writing application : mkvmerge v9.4.0 ('Knurl') 32bit
Writing library : libebml v1.3.4 + libmatroska v1.4.5

Video
ID : 1
Format : AVC
Format/Info : Advanced Video Codec
Format profile : [email protected]
Format settings, CABAC : No
Format settings, ReFrames : 2 frames
Codec ID : V_MPEG4/ISO/AVC
Duration : 21 min
Bit rate : 3 886 kb/s
Width : 1 280 pixels
Height : 720 pixels
Display aspect ratio : 16:9
Frame rate mode : Constant
Frame rate : 23.976 (24000/1001) FPS
Color space : YUV
Chroma subsampling : 4:2:0
Bit depth : 8 bits
Scan type : Progressive
Bits/(Pixel*Frame) : 0.176
Stream size : 600 MiB (87%)
Language : English
Default : Yes
Forced : No
Color range : Limited
Color primaries : BT.709
Transfer characteristics : BT.709
Matrix coefficients : BT.709

Audio #1
ID : 2
Format : AC-3
Format/Info : Audio Coding 3
Mode extension : CM (complete main)
Format settings, Endianness : Big
Codec ID : A_AC3
Duration : 21 min
Bit rate mode : Constant
Bit rate : 192 kb/s
Channel(s) : 2 channels
Channel positions : Front: L R
Sampling rate : 48.0 kHz
Frame rate : 31.250 FPS (1536 spf)
Compression mode : Lossy
Stream size : 29.6 MiB (4%)
Title : Так Треба Продакшн
Language : Ukrainian
Default : Yes
Forced : No

Audio #2
ID : 3
Format : AC-3
Format/Info : Audio Coding 3
Mode extension : CM (complete main)
Format settings, Endianness : Big
Codec ID : A_AC3
Duration : 21 min
Bit rate mode : Constant
Bit rate : 384 kb/s
Channel(s) : 6 channels
Channel positions : Front: L C R, Side: L R, LFE
Sampling rate : 48.0 kHz
Frame rate : 31.250 FPS (1536 spf)
Compression mode : Lossy
Delay relative to video : 16 ms
Stream size : 59.3 MiB (9%)
Title : Original
Language : English
Default : No
Forced : No

Text
ID : 4
Format : UTF-8
Codec ID : S_TEXT/UTF8
Codec ID/Info : UTF-8 Plain Text
Duration : 21 min
Bit rate : 104 b/s
Count of elements : 496
Stream size : 16.5 KiB (0%)
Title : Full
Language : English
Default : No
Forced : No
Скріншоти:


Джерело: &
Особиста оцінка: 10 - без зайвих вагань рекомендую всім!

Цитата:
Подяки:
За запис andic, Dark Invader, Петров Микола, dima_2004.
За синхронізацію Dark Invader.
Торрент-файл оновлено (19.06.2017)
Замінено серію 13х01 "The Simpsons Guy" та
додано 15 сезон.


Джерело: & &
Особиста оцінка: 10 - без зайвих вагань рекомендую всім!


Золотий реліз (завантажене не впливає на рейтинг)
 Трекер:    Зареєстрований   

Завантажити / скачати мультфільм українською



відео для новачків



 Зареєстрований:   2017-06-19 23:43
 Розмір:   42.65 GB 
 Оцінка мультсеріалу:   9.1/10 (Голосів: 14)
   
Dark Invader 
Модератор відео


З нами з: 06.01.11
Востаннє: 23.06.17
Повідомлень: 2008

2016-12-20 16:13  
Торрент-файл оновлено (20.12.2016)
Додано 13-14 сезони.

DukeNukem 
VIP


З нами з: 15.01.09
Востаннє: 23.06.17
Повідомлень: 428

2017-04-21 12:27  
Жаль немає українських субтитрів, а то бубняж кошмарний...
Dark Invader 
Модератор відео


З нами з: 06.01.11
Востаннє: 23.06.17
Повідомлень: 2008

2017-06-19 23:45  
Торрент-файл оновлено (19.06.2017)
Замінено серію 13х01 "The Simpsons Guy" та
додано 15 сезон.

Ваш часовий пояс: GMT + 2 Години

Нова тема   Відповісти