У пошуках Дорi / Finding Dory (2016) Remux 1080p Ukr/Eng | Sub Eng

Нові коментарі

Нова тема   Відповісти
Автор Повідомлення
Anonymous 







2016-10-27 02:52  
У пошуках Дорi / Finding Dory (2016) Remux Ukr/Eng | Sub Eng



Альтернативний постер


повнорозмірні зображення відкриються по кліку (з натиснутим CTRL чи кліком середньою кнопкою мишки - у новій вкладці)


Жанр: анімація, комедія, пригодницький, сімейний
Країна: США



Кінокомпанія: Pixar Animation Studios, Walt Disney Pictures
Режисер: Ендрю Стентон / Andrew Stanton, Енгус МакЛейн / Angus MacLane
Актори: Еллен ДеДженерес / Ellen DeGeneres, Альберт Брукс / Albert Brooks, Ідріс Ельба / Idris Elba, Дайана Кітон / Diane Keaton, Кейт МакКіннон / Kate McKinnon, Домінік Вест / Dominic West, Кейтлін Олсон / Kaitlin Olson, Сіґурні Вівер / Sigourney Weaver та інші

Сюжет:
Продовження мультфільму про рибу-клоуна та інших мешканців підводного світу "У пошуках Немо". Події відбуваються через рік після першої частини. Подруга Немо, риба-хірург Дорі, яка страждає провалами в пам'яті, раптово згадує своє дитинство. Вона стає одержима ідеєю знайти свою родину і відправляється у подорож разом з Немо та Марліном. Друзі відвідують Монтерейський інститут морського життя, де зустрічають китову акулу Дестіні, білуху Бейлі та восьминога Генка. Останній стане важливою ланкою у пошуках Дорі.
Анімаційний пригодницький фільм від дворазового лауреата Оскара Ендрю Стентона, творця "В пошуках Немо", "Волл-І" та ін.

офіційний український трейлер:
Інші трейлери





Рейтинг MPAA: PG - рекомендується присутність батьків
Вікова категорія: 0+

Тривалість: 01:37:03
Якість: Remux (оригінальний відеоряд)
Відео:
кодек:
розмір кадру: 1920 х 1080
бітрейт: 23,6 Мбіт/с

Аудіо # 1
мова: українська
переклад: професійний дубльований | студія LeDoyen
кодек: -HD MA 5.1
бітрейт: 3660 Кбіт/с
Інформація про дубляж
Ролі дублювали: Тетяна Зіновенко, Кирило Нікітенко, Вікторія Москаленко, Єгор Скороходько, Олександр Погребняк, Олег Лепенець, Ольга Гарбузюк, Євген Сінчуков, Микола Боклан, В'ячеслав Дудко, Алла Мазур, Михайло Федорченко, Ігор Гнізділов, Олена Колеснікова, Єлизавета Зіновенко, Дмитро Зленко, Анатолій Яцечко, Наталя Надірадзе, Дмитро Тварковський, Володимир Канівець.
Аудіо # 2
мова: українська
переклад: професійний дубльований | студія LeDoyen
кодек: 5.1
бітрейт: 640 Кбіт/с
примітка: доріжка ідентична першій, відрізняється лише кодеком. Призначена для тих, в кого виникають проблеми з відтворенням -HD MA

Аудіо # 3
мова: англійська
переклад: оригінал
кодек: -HD MA 7.1
бітрейт: 4527 Кбіт/с

Аудіо # 4
мова: англійська
переклад: оригінал
кодек: -HD HR 5.1
бітрейт: 2046 Кбіт/с

Аудіо # 5
мова: англійська
переклад: оригінал
кодек: 2.0
бітрейт: 320 Кбіт/с

Аудіо # 6
мова: англійська
переклад: Descriptive (описова)
кодек: 2.0
бітрейт: 320 Кбіт/с

Аудіо # 7
мова: англійська
переклад: коментарі режисерів Ендрю Стентона, Енгуса МакЛейна та продюсера Ліндсі Коллінз
кодек: 2.0
бітрейт: 320 Кбіт/с

Субтитри #1-2:
мова: англійська (повні, на коментарі)
тип: пререндерні
формат: PGS

Збережено оригінальні розділи, як на Blu-ray.
Info
Код:
Complete name               : Finding Dory (2016) [Ukr,Eng sub.Eng] Remux [Hurtom].
Format                      :
Format version              : Version 4 / Version 2
File size                   : 24.1 GiB
Duration                    : 1 h 37 min
Overall bit rate mode       : Variable
Overall bit rate            : 35.5 Mb/s

Video
ID                          : 1
Format                      : AVC
Format/Info                 : Advanced Video Codec
Format profile              : [email protected]
Format settings, CABAC      : Yes
Format settings, ReFrames   : 4 frames
Format settings, GOP        : M=1, N=12
Codec ID                    : V_MPEG4/ISO/AVC
Duration                    : 1 h 37 min
Bit rate mode               : Variable
Bit rate                    : 23.6 Mb/s
Maximum bit rate            : 32.0 Mb/s
Width                       : 1 920 pixels
Height                      : 1 080 pixels
Display aspect ratio        : 16:9
Frame rate mode             : Constant
Frame rate                  : 23.976 (24000/1001) FPS
Color space                 : YUV
Chroma subsampling          : 4:2:0
Bit depth                   : 8 bits
Scan type                   : Progressive
Bits/(Pixel*Frame)          : 0.475
Stream size                 : 16.0 GiB (67%)
Title                       : У пошуках Дорi / Finding Dory (2016) Remux 1080p [HDClub]
Language                    : English
Default                     : Yes
Forced                      : No

Audio #1
ID                          : 2
Format                      :
Format/Info                 : Digital Theater Systems
Format profile              : MA / Core
Mode                        : 16
Format settings, Endianness : Big
Codec ID                    : A_DTS
Duration                    : 1 h 37 min
Bit rate mode               : Variable / Constant
Bit rate                    : 3 660 kb/s / 1 509 kb/s
Channel(s)                  : 6 channels
Channel positions           : Front: L C R, Side: L R, LFE
Sampling rate               : 48.0 kHz
Frame rate                  : 93.750 FPS (512 spf)
Bit depth                   : 24 bits
Compression mode            : Lossless / Lossy
Stream size                 : 2.48 GiB (10%)
Title                       : Dub [LeDoyen Studio] -HD MA 5.1 3660 Kbps [Hurtom]
Language                    : Ukrainian
Default                     : Yes
Forced                      : No

Audio #2
ID                          : 3
Format                      : AC-3
Format/Info                 : Audio Coding 3
Mode extension              : CM (complete main)
Format settings, Endianness : Big
Codec ID                    : A_AC3
Duration                    : 1 h 37 min
Bit rate mode               : Constant
Bit rate                    : 640 kb/s
Channel(s)                  : 6 channels
Channel positions           : Front: L C R, Side: L R, LFE
Sampling rate               : 48.0 kHz
Frame rate                  : 31.250 FPS (1536 spf)
Compression mode            : Lossy
Stream size                 : 444 MiB (2%)
Title                       : Dub [LeDoyen Studio] 5.1 640 Kbps [Hurtom]
Language                    : Ukrainian
Default                     : No
Forced                      : No

Audio #3
ID                          : 4
Format                      :
Format/Info                 : Digital Theater Systems
Format profile              : MA / Core
Mode                        : 16
Format settings, Endianness : Big
Codec ID                    : A_DTS
Duration                    : 1 h 37 min
Bit rate mode               : Variable / Constant
Bit rate                    : 4 527 kb/s / 1 509 kb/s
Channel(s)                  : 8 channels / 6 channels
Channel positions           : Front: L C R, Side: L R, Back: L R, LFE / Front: L C R, Side: L R, LFE
Sampling rate               : 48.0 kHz
Frame rate                  : 93.750 FPS (512 spf)
Bit depth                   : 24 bits
Compression mode            : Lossless / Lossy
Stream size                 : 3.07 GiB (13%)
Title                       : Original, -HD MA 7.1 4527 Kbps
Language                    : English
Default                     : No
Forced                      : No

Audio #4
ID                          : 5
Format                      :
Format/Info                 : Digital Theater Systems
Format profile              : HRA / Core
Mode                        : 16
Format settings, Endianness : Big
Codec ID                    : A_DTS
Duration                    : 1 h 37 min
Bit rate mode               : Constant
Bit rate                    : 2 046 kb/s / 1 509 kb/s
Channel(s)                  : 6 channels
Channel positions           : Front: L C R, Side: L R, LFE
Sampling rate               : 48.0 kHz
Frame rate                  : 93.750 FPS (512 spf)
Bit depth                   : 24 bits
Compression mode            : Lossy
Stream size                 : 1.39 GiB (6%)
Title                       : Original, -HD HR 5.1 2046 Kbps
Language                    : English
Default                     : No
Forced                      : No

Audio #5
ID                          : 6
Format                      : AC-3
Format/Info                 : Audio Coding 3
Mode extension              : CM (complete main)
Format settings, Endianness : Big
Codec ID                    : A_AC3
Duration                    : 1 h 37 min
Bit rate mode               : Constant
Bit rate                    : 320 kb/s
Channel(s)                  : 2 channels
Channel positions           : Front: L R
Sampling rate               : 48.0 kHz
Frame rate                  : 31.250 FPS (1536 spf)
Compression mode            : Lossy
Stream size                 : 222 MiB (1%)
Title                       : Original, 2.0 320 Kbps
Language                    : English
Default                     : No
Forced                      : No

Audio #6
ID                          : 7
Format                      : AC-3
Format/Info                 : Audio Coding 3
Format profile              : Dolby Digital
Mode extension              : CM (complete main)
Format settings, Endianness : Big
Codec ID                    : A_AC3
Duration                    : 1 h 37 min
Bit rate mode               : Constant
Bit rate                    : 320 kb/s
Channel(s)                  : 2 channels
Channel positions           : Front: L R
Sampling rate               : 48.0 kHz
Frame rate                  : 31.250 FPS (1536 spf)
Compression mode            : Lossy
Stream size                 : 222 MiB (1%)
Title                       : Descriptive, 2.0 320 Kbps
Language                    : English
Default                     : No
Forced                      : No

Audio #7
ID                          : 8
Format                      : AC-3
Format/Info                 : Audio Coding 3
Mode extension              : CM (complete main)
Format settings, Endianness : Big
Codec ID                    : A_AC3
Duration                    : 1 h 37 min
Bit rate mode               : Constant
Bit rate                    : 320 kb/s
Channel(s)                  : 2 channels
Channel positions           : Front: L R
Sampling rate               : 48.0 kHz
Frame rate                  : 31.250 FPS (1536 spf)
Compression mode            : Lossy
Stream size                 : 222 MiB (1%)
Title                       : Commentary, 2.0 320 Kbps
Language                    : English
Default                     : No
Forced                      : No

Text #1
ID                          : 9
Format                      : PGS
Muxing mode                 : zlib
Codec ID                    : S_HDMV/PGS
Codec ID/Info               : Picture based subtitle format used on BDs/HD-DVDs
Duration                    : 1 h 35 min
Bit rate                    : 17.5 kb/s
Count of elements           : 3530
Stream size                 : 11.9 MiB (0%)
Title                       : Eng Full
Language                    : English
Default                     : No
Forced                      : No

Text #2
ID                          : 10
Format                      : PGS
Muxing mode                 : zlib
Codec ID                    : S_HDMV/PGS
Codec ID/Info               : Picture based subtitle format used on BDs/HD-DVDs
Duration                    : 1 h 36 min
Bit rate                    : 25.7 kb/s
Count of elements           : 4542
Stream size                 : 17.7 MiB (0%)
Title                       : Eng Commentary
Language                    : English
Default                     : No
Forced                      : No

Menu
00:00:00.000                : en:00:00:00.000
00:02:35.737                : en:00:02:35.737
00:06:50.242                : en:00:06:50.242
00:10:53.193                : en:00:10:53.193
00:13:33.187                : en:00:13:33.187
00:15:25.131                : en:00:15:25.131
00:17:03.312                : en:00:17:03.312
00:19:35.464                : en:00:19:35.464
00:21:35.292                : en:00:21:35.292
00:24:58.704                : en:00:24:58.704
00:27:08.542                : en:00:27:08.542
00:30:33.205                : en:00:30:33.205
00:35:00.264                : en:00:35:00.264
00:37:52.018                : en:00:37:52.018
00:40:17.998                : en:00:40:17.998
00:41:06.672                : en:00:41:06.672
00:42:30.422                : en:00:42:30.422
00:46:03.427                : en:00:46:03.427
00:48:41.710                : en:00:48:41.710
00:50:27.856                : en:00:50:27.856
00:55:06.677                : en:00:55:06.677
00:57:05.838                : en:00:57:05.838
01:00:41.344                : en:01:00:41.344
01:04:32.952                : en:01:04:32.952
01:10:36.814                : en:01:10:36.814
01:12:28.301                : en:01:12:28.301
01:14:09.860                : en:01:14:09.860
01:18:26.493                : en:01:18:26.493
01:26:49.328                : en:01:26:49.328


Джерело: &

Реліз оновлено!
Замінено звук з 2.0 на якісний 5.1
Прохання перезавантажити торрент та підтримати реліз


Золотий реліз (завантажене не впливає на рейтинг)
 Трекер:    Зареєстрований   

Завантажити / скачати мультфільм українською



відео для новачків



 Зареєстрований:   2016-11-22 01:34
 Розмір:   24.08 GB 
 Оцінка мультфільму:   5.6/10 (Голосів: 22)
   
Інші релізи
Anonymous 







2016-11-22 01:37  
Увага! Реліз оновлено!
Замінено звук на якісний
Перезавантажте торрент та підтримайте реліз!

boroznaya 
VIP


З нами з: 02.11.12
Востаннє: 20.08.17
Повідомлень: 2265

2016-11-22 18:30  
Звукова доріжка взята з блю-рею?
Anonymous 







2016-11-22 18:32  
boroznaya, ні, але якість не гірша.
boroznaya 
VIP


З нами з: 02.11.12
Востаннє: 20.08.17
Повідомлень: 2265

2016-11-22 18:33  
То наша доріжка взагалі не виходила на блю-рей носіях? Українського відеоряду також не було?
Anonymous 







2016-11-22 18:35  
boroznaya, так, на блуреї не було нічого українського, навіть субтитрів. Відеоряд є локалізований з айтюнсу, гляньте сусідні релізи.
77997997 написано:
ха-ха-ха, де Ви бачили, щоб Дісней додавав, хоч якусь Українську локалізацію на BluRay чи DVD??? Її точно не буде (ні нашої доріжки, ні наших субтитрів)... І так на майбутнє, Дісней окрім як на iTunes та Megogo нашу локалізацію ніде (BluRay, DVD) не додає...

boroznaya 
VIP


З нами з: 02.11.12
Востаннє: 20.08.17
Повідомлень: 2265

2016-11-22 18:42  
igor911 написано:
на блуреї не було нічого українського

Шкода... Мульт того вартий.
igor911 написано:
І так на майбутнє, Дісней окрім як на iTunes та Megogo нашу локалізацію ніде (BluRay, DVD) не додає...

Спасибі. На майбутнє знатиму.

Uberwinder 
Свій


З нами з: 18.11.16
Востаннє: 20.08.17
Повідомлень: 110

2017-02-03 23:24  
Чудовий мульт, без вагань раджу до перегляду. І озвучення суперове!
Ваш часовий пояс: GMT + 2 Години

Нова тема   Відповісти