Шалена вечірка / The Wild Party (1975) AVC Ukr/Eng | sub Eng

Нові коментарі

Нова тема   Відповісти
Автор Повідомлення
Arsenfpu 
Відео Гуртом - фільмокрай
Відео Гуртом - фільмокрай


З нами з: 30.04.09
Востаннє: 03.07.20
Повідомлень: 7031

2016-10-26 22:55  
Шалена вечірка / The Wild Party (1975) AVC Ukr/Eng | sub Eng

Шалена вечірка / The Wild Party (1975) AVC Ukr/Eng | sub Eng


Жанр: драма, комедія
Країна: США



Кінокомпанія: American International Pictures (AIP), Merchant Ivory Productions, The Wild Party Production Company
Режисер: Джеймс Айворі
Актори: Джеймс Коко (Jolly Grimm), Рекел Уелч (Queenie), Перрі Кінг (Dale Sword), Тіффані Боллінг (Kate), Ройал Дено (Tex), Девід Дьюкс (James Morrison), Кріс Гілмор (Nadine), Едді Лоуренс (Kreutzer), Бобо Льюїс (Wilma), Дон де Наталі (Jackie)

Сюжет:
Голлівуд 20-і роки. Зірка німого кіно Грімм влаштовує вдома грандіозну вечірку. Грімм сподівається, що зіркова тусовка дасть новий поштовх його кар'єрі. Але актор напивається і все йде не зовсім так як було заплановано. А весела вечірка перетворюється в божевільну оргію.


Тривалість: 01:48:32
Якість: AVC
Відео:
кодек:
розмір кадру: 1 024x560
бітрейт: 2 499 кб/с

Аудіо # 1:
мова: українська
переклад: багатоголосий закадровий
кодек: 2.0
бітрейт: 192 кб/с

Аудіо # 2:
мова: англійська
переклад: оригінал
кодек: 2.0
бітрейт: 192 кб/с

Субтитри:
мова: англійська
тип: програмні (м'які)
формат: *.srt
Скріншоти














Про файл
General
Unique ID : 6871273291592773780855878163885677224 (0x52B5BEDE6B6F8282716ED774F3B5AA8)
Complete name : C:\The Wild Party (1975) [Ukr,Eng] AVC [Hurtom].
Format :
Format version : Version 4 / Version 2
File size : 2.19 GiB
Duration : 1 h 48 min
Overall bit rate : 2 885 kb/s
Movie name : Шалена вечірка / The Wild Party (1975)
Encoded date : UTC 2020-06-20 16:14:50
Writing application : v21.0.0 ('Tardigrades Will Inherit The Earth') 32-bit
Writing library : libebml v1.3.5 + v1.4.8
Cover : Yes
Attachments : cover.jpg

Video
ID : 1
Format : AVC
Format/Info : Advanced Video Codec
Format profile : [email protected]
Format settings, CABAC : Yes
Format settings, ReFrames : 4 frames
Codec ID : V_MPEG4/ISO/AVC
Duration : 1 h 48 min
Bit rate : 2 499 kb/s
Width : 1 024 pixels
Height : 560 pixels
Display aspect ratio : 1.85:1
Frame rate mode : Constant
Frame rate : 23.976 (24000/1001) FPS
Color space : YUV
Chroma subsampling : 4:2:0
Bit depth : 8 bits
Scan type : Progressive
Bits/(Pixel*Frame) : 0.182
Stream size : 1.89 GiB (87%)
Writing library : core 157 r2935 545de2f
Encoding settings : cabac=1 / ref=3 / deblock=1:-1:-1 / analyse=0x3:0x113 / me=hex / subme=7 / psy=1 / psy_rd=1.00:0.15 / mixed_ref=1 / me_range=16 / chroma_me=1 / trellis=1 / 8x8dct=1 / cqm=0 / deadzone=21,11 / fast_pskip=1 / chroma_qp_offset=-3 / threads=12 / lookahead_threads=2 / sliced_threads=0 / nr=0 / decimate=1 / interlaced=0 / bluray_compat=0 / constrained_intra=0 / bframes=3 / b_pyramid=2 / b_adapt=1 / b_bias=0 / direct=1 / weightb=1 / open_gop=0 / weightp=2 / keyint=240 / keyint_min=23 / scenecut=40 / intra_refresh=0 / rc_lookahead=40 / rc=2pass / mbtree=1 / bitrate=2499 / ratetol=1.0 / qcomp=0.60 / qpmin=0 / qpmax=69 / qpstep=4 / cplxblur=20.0 / qblur=0.5 / ip_ratio=1.40 / aq=1:1.00
Default : Yes
Forced : No

Audio #1
ID : 2
Format : AC-3
Format/Info : Audio Coding 3
Mode extension : CM (complete main)
Format settings, Endianness : Big
Codec ID : A_AC3
Duration : 1 h 48 min
Bit rate mode : Constant
Bit rate : 192 kb/s
Channel(s) : 2 channels
Channel positions : Front: L R
Sampling rate : 48.0 kHz
Frame rate : 31.250 FPS (1536 spf)
Compression mode : Lossy
Stream size : 149 MiB (7%)
Title : amc
Language : Ukrainian
Default : Yes
Forced : Yes

Audio #2
ID : 3
Format : AC-3
Format/Info : Audio Coding 3
Mode extension : CM (complete main)
Format settings, Endianness : Big
Codec ID : A_AC3
Duration : 1 h 48 min
Bit rate mode : Constant
Bit rate : 192 kb/s
Channel(s) : 2 channels
Channel positions : Front: L R
Sampling rate : 48.0 kHz
Frame rate : 31.250 FPS (1536 spf)
Compression mode : Lossy
Stream size : 149 MiB (7%)
Language : English
Default : No
Forced : No

Text
ID : 4
Format : UTF-8
Codec ID : S_TEXT/UTF8
Codec ID/Info : UTF-8 Plain Text
Duration : 1 h 47 min
Bit rate : 62 b/s
Count of elements : 1891
Stream size : 49.1 KiB (0%)
Language : English
Default : Yes
Forced : No
Джерело: Ex.ua
За запис з amc дякую пану slavik_v_z
Особиста оцінка: не дивився


Срібний реліз (на рейтинг впливає 50% завантаженого)
 Трекер:    Зареєстрований   

Завантажити / скачати фільм українською



відео для новачків



 Зареєстрований:   2020-06-20 19:31
 Розмір:   2.19 GB 
 Оцінка фільму:   4.2/10 (Голосів: 23)
   
clavaykraini 
Свій


З нами з: 16.05.14
Востаннє: 04.07.20
Повідомлень: 65

2020-05-29 22:00  
Є в наявності 1080p цієї чудової стрічки (надам бажаючим), може хтось візьметься зробити новий реліз?
Arsenfpu 
Відео Гуртом - фільмокрай
Відео Гуртом - фільмокрай


З нами з: 30.04.09
Востаннє: 03.07.20
Повідомлень: 7031

2020-06-20 19:32  
Реліз оновлено!
Відео змінене з на AVC.

Ваш часовий пояс: GMT + 2 Години

Нова тема   Відповісти