Холістичне детективне агентство Дірка Джентлі (Сезон 1) / Dirk Gently's Holistic Detective Agency (Season 1) (2016) 720p

Нові коментарі

Нова тема   Відповісти
Автор Повідомлення
НеЗупиняйПродакшн 
Відео Гуртом - озвучення
Відео Гуртом - озвучення


З нами з: 28.07.15
Востаннє: 21.10.17
Повідомлень: 428

2016-10-26 08:25  
Холістичне детективне агентство Дірка Джентлі (Сезон 1) / Dirk Gently's Holistic Detective Agency (Season 1) (2016) 720p

Холістичне детективне агентство Дірка Джентлі (Сезон 1) / Dirk Gently's Holistic Detective Agency (Season 1) (2016) 720p


Жанр: комедія, детектив, наукова фантастика
Країна: США, Великобританія




Кінокомпанія / телеканал: BBC America
Режисер: Макс Лендіс
Актори: Семюель Барнет, Елайджа Вуд, Крістіан Бако, Нейл Браун молодший та інші

Сюжет:
Ексцентричний приватний детектив Дірк Джентлі у свої розслідуваннях використовує холістичні методи - він вірить, що все у всесвіті взаємопов'язано. Серіал - екранізація іронічного науково-фантастичного роману Дуґласа Адамса.


Тривалість: 1 серія: ~45:00 (цілком серій: 8 з 8)
Перелік серій і дати релізів в українському озвученні
1. Горизонти
2. Втрачено й знайдено
3. Поціновувачі стін
4. Що за
5. Дуже прямоходяча людина
6. Виправити все
7. Озброєна душа
8. Двоє хлопців при здоровому глузді, що займаються нормальними речима
Якість: 720
Відео:
розмір кадру: 1280 х 718
бітрейт: 4032 кб/с

Аудіо # 1:
мова: українське
озвучення: професійне багатоголосе закадрове
кодек: 5.1
бітрейт: 448 кб/с

Озвучено студією "НеЗупиняйПродакшн"


Аудіо # 2:
мова: англійська (оригінал)
кодек: 5.1
бітрейт: 384 кб/с

Субтитри:
мова: англійська [1-2 серії]
тип: програмні (м'які)
формат: *.srt

Локалізація постера: DanyZemlyanoy
Info
Format :
Format version : Version 4 / Version 2
File size : 1.81 GiB
Duration : 53 min
Overall bit rate : 4 868 kb/s
Movie name : Холістичне агентство Дірка Джентлі (1 сезон) | Озвучено на НеЗупиняйПродакшн
Encoded date : UTC 2016-10-26 05:19:50
Writing application : mkvmerge v8.3.0 ('Over the Horizon') 64bit
Writing library : libebml v1.3.1 + libmatroska v1.4.2
Cover : Yes
Attachments : cover.jpg / small_cover.jpg / cover.jpg / cover_land.jpg / small_cover_land.jpg

Video
ID : 1
Format : AVC
Format/Info : Advanced Video Codec
Format profile : [email protected]
Format settings, CABAC : No
Format settings, ReFrames : 2 frames
Codec ID : V_MPEG4/ISO/AVC
Duration : 53 min
Bit rate : 4 032 kb/s
Width : 1 280 pixels
Height : 718 pixels
Display aspect ratio : 16:9
Frame rate mode : Constant
Frame rate : 23.976 (24000/1001) FPS
Color space : YUV
Chroma subsampling : 4:2:0
Bit depth : 8 bits
Scan type : Progressive
Bits/(Pixel*Frame) : 0.183
Stream size : 1.50 GiB (83%)
Language : English
Default : Yes
Forced : No
Color range : Limited
Color primaries : BT.709
Transfer characteristics : BT.709
Matrix coefficients : BT.709

Audio #1
ID : 2
Format : AC-3
Format/Info : Audio Coding 3
Mode extension : CM (complete main)
Format settings, Endianness : Big
Codec ID : A_AC3
Duration : 53 min
Bit rate mode : Constant
Bit rate : 448 kb/s
Channel(s) : 6 channels
Channel positions : Front: L C R, Side: L R, LFE
Sampling rate : 48.0 kHz
Frame rate : 31.250 FPS (1536 spf)
Compression mode : Lossy
Stream size : 171 MiB (9%)
Title : Українська (НеЗупиняйПродакшн)
Language : Ukrainian
Default : Yes
Forced : No

Audio #2
ID : 3
Format : AC-3
Format/Info : Audio Coding 3
Mode extension : CM (complete main)
Format settings, Endianness : Big
Codec ID : A_AC3
Duration : 53 min
Bit rate mode : Constant
Bit rate : 384 kb/s
Channel(s) : 6 channels
Channel positions : Front: L C R, Side: L R, LFE
Sampling rate : 48.0 kHz
Frame rate : 31.250 FPS (1536 spf)
Compression mode : Lossy
Stream size : 146 MiB (8%)
Language : English
Default : No
Forced : No

Text
ID : 4
Format : UTF-8
Codec ID : S_TEXT/UTF8
Codec ID/Info : UTF-8 Plain Text
Duration : 52 min
Bit rate : 87 b/s
Count of elements : 968
Stream size : 33.9 KiB (0%)
Language : English
Default : Yes
Forced : No
Скріншоти







ТРЕЙЛЕР СЕРІАЛУ






Авторський реліз (завантажувати можна без реєстрації)
 Трекер:    Зареєстрований   

Завантажити / скачати серіал українською



відео для новачків



 Зареєстрований:   2016-12-16 18:55
 Розмір:   11.74 GB 
 Оцінка серіалу:   9.5/10 (Голосів: 77)
   
ksanka45 
Свій


З нами з: 04.06.11
Востаннє: 18.10.17
Повідомлень: 134

2016-12-05 23:45  
Дякую! Дуже файний серіал.
Patriot_ukr 
VIP


З нами з: 06.04.15
Востаннє: 21.10.17
Повідомлень: 1798

2016-12-13 00:38  
У 2017 виходить 10-серійний другий сезон! Остання серія, поки що - одна з найкращих!
GoDLiKeR20 
Частий відвідувач


З нами з: 21.06.13
Востаннє: 20.10.17
Повідомлень: 30

2016-12-13 17:52  
Фінал 10/10.
2 сезон жду. Шедеврально)

НеЗупиняйПродакшн 
Відео Гуртом - озвучення
Відео Гуртом - озвучення


З нами з: 28.07.15
Востаннє: 21.10.17
Повідомлень: 428

2016-12-16 18:56  
Роздачу оновлено - восьму серію замінено на якісніший ріп.
bingo007447 
Частий відвідувач


З нами з: 02.04.10
Востаннє: 19.10.17
Повідомлень: 30

2016-12-17 19:05  
Доброго вечора!
Скажіть будь ласка, субтитри тільки до перших двох серій і все?

НеЗупиняйПродакшн 
Відео Гуртом - озвучення
Відео Гуртом - озвучення


З нами з: 28.07.15
Востаннє: 21.10.17
Повідомлень: 428

2016-12-18 02:04  
bingo007447 написано:

Доброго вечора!
Скажіть будь ласка, субтитри тільки до перших двох серій і все?

Вже є до усіх серій, просто не встигли ще оновити реліз.

bingo007447 
Частий відвідувач


З нами з: 02.04.10
Востаннє: 19.10.17
Повідомлень: 30

2017-01-05 04:30  
НеЗупиняйПродакшн

Я так розумію що субтитрів немає з 3 і до останньої серії, так як серіал в мене вже завантажений

А зміни останній раз внесені 2016-12-16 17:55.

Перепрошую, то що це виходить тоді

sombro 
Новенький


З нами з: 07.01.11
Востаннє: 16.10.17
Повідомлень: 1

2017-08-01 21:25  
Несамовито плюсую. Гарно.
bot 
робот


З нами з: 30.09.07
Востаннє: 26.05.05
Повідомлень: 17720

2017-08-21 17:52  
Тему перенесено з Серіали в HD до форуму Архів відео

Причина перенесення: https://toloka.to/t83382
11FrYkT

НеЗупиняйПродакшн 
Відео Гуртом - озвучення
Відео Гуртом - озвучення


З нами з: 28.07.15
Востаннє: 21.10.17
Повідомлень: 428

2017-09-07 20:46  
Pозпочато збір коштів на озвучення 2 сезону

bot 
робот


З нами з: 30.09.07
Востаннє: 26.05.05
Повідомлень: 17720

2017-09-09 08:46  
Тему перенесено з Архів відео до форуму Серіали в HD


igor911

Ваш часовий пояс: GMT + 2 Години

Нова тема   Відповісти