Моссад (Сезон 1) / HaMidrasha (Season 1) (2015) 720p

Нові коментарі

Нова тема   Відповісти
Автор Повідомлення
Anonymous 







2016-10-25 20:35  
Моссад (Сезон 1) / HaMidrasha (Season 1) (2015) 720p

Моссад (Сезон 1) / HaMidrasha (Season 1) (2015) 720p


Жанр: екшн, драма
Країна: Ізраїль



Кінокомпанія: Sumayoko, Reshet Broadcasting
Режисер: Даніель Сиркін
Актори: Єгуда Леві (Йона Гарарі), Йорам Гаон (Саймон), Лерон Вейсман (Авігайль), Шай Авиви (Міха Шустер), Хана Ласло (Доріс)

Сюжет:
У серіалі розповідається про те, як готують спецагентів однієї з найефективніших і найсекретніших розвідок світу, де вони проходять тренування, хто вчить їх майстерності розвідки і як служба змінює їхні особистість і моральні цінності.

За сюжетом головний герой стрічки Йона Гарар (Йехуда Леві) - один з найкращих агентів організації. Йому доручено підготувати новобранців, яких він тренуватиме на новому, суперсучасному полігоні, що дозволяє працювати в реальних умовах. Щоб виявити здібності кожного курсанта, він постійно влаштовує їм випробування на межі фізичних і психологічних здатностей.


Тривалість: 1 серія: ~ 42 хв. (цілком серій: 13)
Перелік серій
01) Episode #1.1
02) Episode #1.2
03) Sipur Kisuy
04) Caffe
05) HaVeinbergim
06) Malkodet Dvash
07) Tapuach Rakuv
08) Mivtza Eyov
09) Gvia Siman Tov
10) Hasifa
11) Romach
12) Mivtza Sofia
13) Haramat Kosit
Якість: 720p
Відео:
кодек:
розмір кадру: 1280 х 720
бітрейт: ~ 1 600 кб/с

Аудіо:
мова: українська
переклад: багатоголосий закадровий
кодек: 2.0
бітрейт: 128 кб/с

Джерело озвучення:
Info
General
Unique ID : 213204077992212981471289705491352049217 (0xA0659C9F6352388492AA5DECADA0D641)
Complete name : E:\_inbox\torrents\Support\Моссад (Сезон 1) [, 720p, Ukr]\Моссад s01e01-02.
Format :
Format version : Version 4 / Version 2
File size : 905 MiB
Duration : 1 h 12 min
Overall bit rate : 1 756 kb/s
Encoded date : UTC 2016-10-24 19:54:05
Writing application : v9.5.0 ('Quiet Fire') 64bit
Writing library : libebml v1.3.4 + v1.4.5

Video
ID : 1
Format : AVC
Format/Info : Advanced Video Codec
Format profile : [email protected]
Format settings, CABAC : Yes
Format settings, ReFrames : 6 frames
Codec ID : V_MPEG4/ISO/AVC
Duration : 1 h 12 min
Bit rate : 1 626 kb/s
Width : 1 280 pixels
Height : 720 pixels
Display aspect ratio : 16:9
Frame rate mode : Constant
Frame rate : 25.000 FPS
Color space : YUV
Chroma subsampling : 4:2:0
Bit depth : 8 bits
Scan type : Progressive
Bits/(Pixel*Frame) : 0.071
Stream size : 838 MiB (93%)
Writing library : core 142 r2491 24e4fed
Encoding settings : cabac=1 / ref=6 / deblock=1:0:0 / analyse=0x3:0x113 / me=hex / subme=7 / psy=1 / psy_rd=1.00:0.00 / mixed_ref=1 / me_range=16 / chroma_me=1 / trellis=1 / 8x8dct=1 / cqm=0 / deadzone=21,11 / fast_pskip=1 / chroma_qp_offset=-2 / threads=12 / lookahead_threads=2 / sliced_threads=0 / nr=0 / decimate=1 / interlaced=0 / bluray_compat=0 / constrained_intra=0 / bframes=3 / b_pyramid=2 / b_adapt=1 / b_bias=0 / direct=1 / weightb=1 / open_gop=0 / weightp=2 / keyint=100 / keyint_min=10 / scenecut=40 / intra_refresh=0 / rc_lookahead=40 / rc=crf / mbtree=1 / crf=22.0 / qcomp=0.60 / qpmin=0 / qpmax=69 / qpstep=4 / vbv_maxrate=6000 / vbv_bufsize=12000 / crf_max=0.0 / nal_hrd=none / filler=0 / ip_ratio=1.41 / aq=1:1.00
Default : Yes
Forced : No

Audio
ID : 2
Format :
Format/Info : Advanced Audio Codec
Format profile : LC
Codec ID : A_AAC
Duration : 1 h 12 min
Bit rate : 128 kb/s
Channel(s) : 2 channels
Channel positions : Front: L R
Sampling rate : 44.1 kHz
Frame rate : 43.066 FPS (1024 spf)
Compression mode : Lossy
Delay relative to video : -80 ms
Stream size : 66.0 MiB (7%)
Title : 2+2
Language : Ukrainian
Default : Yes
Forced : No
Скріншоти
Джерело:
Особиста оцінка: 0 - не дивився


Бронзовий реліз (на рейтинг впливає 75% завантаженого)
 Трекер:    Зареєстрований   

Завантажити / скачати серіал українською



відео для новачків



 Зареєстрований:   2016-10-25 20:35
 Розмір:   5.82 GB 
 Оцінка серіалу:   8.9/10 (Голосів: 21)
   
Anonymous 







2016-10-25 20:40  
Це , тож якість так собі, але нормальний реліз навряд чи буде, тому хай цей ріп буде тут.
don pedro 
Попереджень: 1
Попереджень: 1 


З нами з: 29.06.11
Востаннє: 30.11.20
Повідомлень: 18198

2016-10-25 21:48  
Нарешті хоч щось зняли про найдієвішу спецслужбу світу.
Estranded 
VIP


З нами з: 09.02.14
Востаннє: 30.11.20
Повідомлень: 1527

2016-10-25 22:24  
Чудово, потім гляну, цікаво подивитися щось НЕ американське.
ryduk1984 
Новенький


З нами з: 18.08.12
Востаннє: 26.11.20
Повідомлень: 1

2016-10-25 22:33  
хлопці, додайте швидкості на роздачі
Traktorist8 
Свій


З нами з: 07.04.14
Востаннє: 29.11.20
Повідомлень: 55

2016-10-26 08:06  
а не знає ніхто ніякого документального кіно про моссад? буду вам вдячний за відповідь)
Lindenbrok 
Новенький


З нами з: 06.06.14
Востаннє: 22.03.19
Повідомлень: 23

2016-10-26 10:52  
Traktorist8
Можу підказати два фільма але вони москальською
1. Моссад: лицензия на убийство (Леонид Млечин) 2011 року
2. Тайная война. Моссад 2010 року
Обидва є на ексюа

Traktorist8 
Свій


З нами з: 07.04.14
Востаннє: 29.11.20
Повідомлень: 55

2016-10-26 16:36  
Lindenbrok
о, дуже дякую!)

gashyk 
Свій


З нами з: 19.03.10
Востаннє: 29.11.20
Повідомлень: 124

2016-10-30 17:07  
Можна охарактеризувати трьома словами:
1. Шлак
2. Треш
3. Бред

Robar III 
Забанено
Забанено


З нами з: 18.08.11
Востаннє: 01.05.20
Повідомлень: 4905

2016-11-05 13:31  
don pedro
прокоментуєте серіал?

Від себе скажу, що він не в топ моєму рейтингу, й я б назвав його занадто спрощеним та цензурованим. Проте для сер. стат. гладяча якраз. хоча той же Homeland сподобався мені набагато більше. І як на мене підіймає ці "морально-етичні" проблеми краще ніж у цьому серіалі. Цей чимось нагадав "Leverage"

don pedro 
Попереджень: 1
Попереджень: 1 


З нами з: 29.06.11
Востаннє: 30.11.20
Повідомлень: 18198

2016-11-05 14:13  
Robar III
До речі, "Батьківщину" знято за ізраїльським серіалом.

Robar III 
Забанено
Забанено


З нами з: 18.08.11
Востаннє: 01.05.20
Повідомлень: 4905

2016-11-05 16:00  
don pedro
так, я знаю. А про цей, щось скажете?

don pedro 
Попереджень: 1
Попереджень: 1 


З нами з: 29.06.11
Востаннє: 30.11.20
Повідомлень: 18198

2016-11-05 16:07  
Robar III
Нічого особливого. Але цікаво. Інакше, аніж в американських.

krigg070 
Відео Гуртом - фільмокрай
Відео Гуртом - фільмокрай


З нами з: 29.10.14
Востаннє: 30.11.20
Повідомлень: 1818

2017-01-30 19:16  
На HDClub є 1080p.
Anonymous 







2017-01-31 13:26  
krigg070 написано:
На HDClub є 1080p.

Якщо раптом знайдеться охочий зробити нормальний реліз - можу надати кращій звук.

zaika 
VIP


З нами з: 01.07.12
Востаннє: 29.11.20
Повідомлень: 1242

2018-11-02 12:09  
gashyk
Підтримую. 1/10

waldi-hurtom 
VIP


З нами з: 07.10.12
Востаннє: 30.11.20
Повідомлень: 1217

2020-06-30 18:06  
З жанром помилка. Стьоб або дуже слабенька комедія. Не моє. Сподівався, буде щось типу Fauda, але це сміття, і близько не стояло. Однієї серії досить, решту вряд чи дивитимусь. Шкода, що качав повільно і довго. 3 з 10.
romato 
Забанено
Забанено


З нами з: 31.05.20
Востаннє: 07.09.20
Повідомлень: 5

2020-06-30 18:10  
waldi-hurtom
Проблема у когось в голові.

Ваш часовий пояс: GMT + 2 Години

Нова тема   Відповісти