У пошуках Дорi / Finding Dory (2016) 1080p Ukr/Eng | Sub Eng

Нові коментарі

Нова тема   Відповісти
Автор Повідомлення
Anonymous 







2016-10-25 03:01  
У пошуках Дорi / Finding Dory (2016) 1080p Ukr/Eng | Sub Eng



Альтернативний постер


повнорозмірні зображення відкриються по кліку (з натиснутим CTRL чи кліком середньою кнопкою мишки - у новій вкладці)


Жанр: анімація, комедія, пригодницький, сімейний
Країна: США



Кінокомпанія: Pixar Animation Studios, Walt Disney Pictures
Режисер: Ендрю Стентон / Andrew Stanton, Енгус МакЛейн / Angus MacLane
Актори: Еллен ДеДженерес / Ellen DeGeneres, Альберт Брукс / Albert Brooks, Ідріс Ельба / Idris Elba, Дайана Кітон / Diane Keaton, Кейт МакКіннон / Kate McKinnon, Домінік Вест / Dominic West, Кейтлін Олсон / Kaitlin Olson, Сіґурні Вівер / Sigourney Weaver та інші

Сюжет:
Продовження мультфільму про рибу-клоуна та інших мешканців підводного світу "У пошуках Немо". Події відбуваються через рік після першої частини. Подруга Немо, риба-хірург Дорі, яка страждає провалами в пам'яті, раптово згадує своє дитинство. Вона стає одержима ідеєю знайти свою родину і відправляється у подорож разом з Немо та Марліном. Друзі відвідують Монтерейський інститут морського життя, де зустрічають китову акулу Дестіні, білуху Бейлі та восьминога Генка. Останній стане важливою ланкою у пошуках Дорі.
Анімаційний пригодницький фільм від дворазового лауреата Оскара Ендрю Стентона, творця "В пошуках Немо", "Волл-І" та ін.

офіційний український трейлер:
Інші трейлери





Рейтинг MPAA: PG - рекомендується присутність батьків
Вікова категорія: 0+

Тривалість: 01:37:03
Якість: 1080p (оригінальний відеоряд)
Відео:
кодек:
розмір кадру: 1920 х 1080
бітрейт: 13 Мбіт/с [crf=19]

Аудіо # 1
мова: українська
переклад: професійний дубльований | студія LeDoyen
кодек: 5.1
бітрейт: 1509 Кбіт/с
Інформація про дубляж
Ролі дублювали: Тетяна Зіновенко, Кирило Нікітенко, Вікторія Москаленко, Єгор Скороходько, Олександр Погребняк, Олег Лепенець, Ольга Гарбузюк, Євген Сінчуков, Микола Боклан, В'ячеслав Дудко, Алла Мазур, Михайло Федорченко, Ігор Гнізділов, Олена Колеснікова, Єлизавета Зіновенко, Дмитро Зленко, Анатолій Яцечко, Наталя Надірадзе, Дмитро Тварковський, Володимир Канівець.
Аудіо # 2
мова: українська
переклад: професійний дубльований | студія LeDoyen
кодек: 5.1
бітрейт: 640 Кбіт/с
примітка: доріжка ідентична першій, відрізняється лише кодеком. Призначена для тих, в кого виникають проблеми з відтворенням .

Аудіо # 3
мова: англійська
переклад: оригінал
кодек: 5.1
бітрейт: 1509 Кбіт/с

Субтитри #1-2:
мова: англійська (повні, SDH)
тип: програмні (м'які)
формат: *.srt

Збережено оригінальні розділи, як на Blu-ray.
Info
Код:
Complete name               : Finding Dory (2016) [Ukr,Eng sub.Eng] 1080p [Hurtom].
Format                      :
Format version              : Version 4 / Version 2
File size                   : 11.3 GiB
Duration                    : 1 h 37 min
Overall bit rate            : 16.6 Mb/s

Video
ID                          : 1
Format                      : AVC
Format/Info                 : Advanced Video Codec
Format profile              : [email protected]
Format settings, CABAC      : Yes
Format settings, ReFrames   : 4 frames
Codec ID                    : V_MPEG4/ISO/AVC
Duration                    : 1 h 37 min
Bit rate                    : 13.0 Mb/s
Width                       : 1 920 pixels
Height                      : 1 080 pixels
Display aspect ratio        : 16:9
Frame rate mode             : Constant
Frame rate                  : 23.976 (24000/1001) FPS
Color space                 : YUV
Chroma subsampling          : 4:2:0
Bit depth                   : 8 bits
Scan type                   : Progressive
Bits/(Pixel*Frame)          : 0.261
Stream size                 : 8.79 GiB (78%)
Title                       : У пошуках Дорi / Finding Dory (2016) 1080p [ExKinoRay]
Writing library             : core 148 r2699+6+41 29a38aa Yuuki [[email protected]:2:0 X86_64][GCC 5.3.0]
Encoding settings           : cabac=1 / ref=4 / deblock=1:-3:-3 / analyse=0x3:0x113 / me=umh / subme=11 / psy=1 / fade_compensate=0.00 / psy_rd=1.00:0.00 / mixed_ref=1 / me_range=48 / chroma_me=1 / trellis=2 / 8x8dct=1 / cqm=0 / deadzone=21,11 / fast_pskip=0 / chroma_qp_offset=-3 / threads=12 / lookahead_threads=2 / sliced_threads=0 / nr=0 / decimate=1 / interlaced=0 / bluray_compat=0 / constrained_intra=0 / fgo=0 / bframes=8 / b_pyramid=2 / b_adapt=2 / b_bias=0 / direct=3 / weightb=1 / open_gop=0 / weightp=2 / keyint=250 / keyint_min=23 / scenecut=40 / intra_refresh=0 / rc_lookahead=40 / rc=crf / mbtree=0 / crf=19.0000 / qcomp=0.60 / qpmin=0:0:0 / qpmax=69:69:69 / qpstep=4 / vbv_maxrate=50000 / vbv_bufsize=45000 / crf_max=0.0 / nal_hrd=none / filler=0 / ip_ratio=1.40 / pb_ratio=1.30 / aq=3:1.00
Language                    : English
Default                     : Yes
Forced                      : No
Color range                 : Limited
Matrix coefficients         : BT.709

Audio #1
ID                          : 2
Format                      :
Format/Info                 : Digital Theater Systems
Mode                        : 16
Format settings, Endianness : Big
Codec ID                    : A_DTS
Duration                    : 1 h 37 min
Bit rate mode               : Constant
Bit rate                    : 1 509 kb/s
Channel(s)                  : 6 channels
Channel positions           : Front: L C R, Side: L R, LFE
Sampling rate               : 48.0 kHz
Frame rate                  : 93.750 FPS (512 spf)
Bit depth                   : 24 bits
Compression mode            : Lossy
Stream size                 : 1.02 GiB (9%)
Title                       : Dub [LeDoyen Studio] 5.1 1509 Kbps [Hurtom]
Language                    : Ukrainian
Default                     : Yes
Forced                      : No

Audio #2
ID                          : 3
Format                      : AC-3
Format/Info                 : Audio Coding 3
Mode extension              : CM (complete main)
Format settings, Endianness : Big
Codec ID                    : A_AC3
Duration                    : 1 h 37 min
Bit rate mode               : Constant
Bit rate                    : 640 kb/s
Channel(s)                  : 6 channels
Channel positions           : Front: L C R, Side: L R, LFE
Sampling rate               : 48.0 kHz
Frame rate                  : 31.250 FPS (1536 spf)
Compression mode            : Lossy
Stream size                 : 444 MiB (4%)
Title                       : Dub [LeDoyen Studio] 5.1 640 Kbps [Hurtom]
Language                    : Ukrainian
Default                     : No
Forced                      : No

Audio #3
ID                          : 4
Format                      :
Format/Info                 : Digital Theater Systems
Mode                        : 16
Format settings, Endianness : Big
Codec ID                    : A_DTS
Duration                    : 1 h 37 min
Bit rate mode               : Constant
Bit rate                    : 1 509 kb/s
Channel(s)                  : 6 channels
Channel positions           : Front: L C R, Side: L R, LFE
Sampling rate               : 48.0 kHz
Frame rate                  : 93.750 FPS (512 spf)
Bit depth                   : 24 bits
Compression mode            : Lossy
Stream size                 : 1.02 GiB (9%)
Title                       : Original, 5.1 1509 Kbps
Language                    : English
Default                     : No
Forced                      : No

Text #1
ID                          : 5
Format                      : UTF-8
Codec ID                    : S_TEXT/UTF8
Codec ID/Info               : UTF-8 Plain Text
Duration                    : 1 h 35 min
Bit rate                    : 85 b/s
Count of elements           : 1578
Stream size                 : 59.3 KiB (0%)
Title                       : Full
Language                    : English
Default                     : No
Forced                      : No

Text #2
ID                          : 6
Format                      : UTF-8
Codec ID                    : S_TEXT/UTF8
Codec ID/Info               : UTF-8 Plain Text
Duration                    : 1 h 35 min
Bit rate                    : 92 b/s
Count of elements           : 1764
Stream size                 : 64.6 KiB (0%)
Title                       : SDH
Language                    : English
Default                     : No
Forced                      : No

Menu
00:00:00.000                : en:00:00:00.000
00:02:35.739                : en:00:02:35.739
00:06:50.243                : en:00:06:50.243
00:10:53.194                : en:00:10:53.194
00:13:33.187                : en:00:13:33.187
00:15:25.132                : en:00:15:25.132
00:17:03.314                : en:00:17:03.314
00:19:35.466                : en:00:19:35.466
00:21:35.294                : en:00:21:35.294
00:24:58.705                : en:00:24:58.705
00:27:08.543                : en:00:27:08.543
00:30:33.206                : en:00:30:33.206
00:35:00.265                : en:00:35:00.265
00:37:52.020                : en:00:37:52.020
00:40:17.999                : en:00:40:17.999
00:41:06.672                : en:00:41:06.672
00:42:30.423                : en:00:42:30.423
00:46:03.427                : en:00:46:03.427
00:48:41.710                : en:00:48:41.710
00:50:27.858                : en:00:50:27.858
00:55:06.678                : en:00:55:06.678
00:57:05.839                : en:00:57:05.839
01:00:41.346                : en:01:00:41.346
01:04:32.952                : en:01:04:32.952
01:10:36.816                : en:01:10:36.816
01:12:28.302                : en:01:12:28.302
01:14:09.862                : en:01:14:09.862
01:18:26.493                : en:01:18:26.493
01:26:49.329                : en:01:26:49.329


Джерело: &

Реліз оновлено!
Замінено звук з 2.0 на якісніший 5.1


 Трекер:    Зареєстрований   

Завантажити / скачати мультфільм українською



відео для новачків



 Зареєстрований:   2016-11-21 22:03
 Розмір:   11.27 GB 
 Оцінка мультфільму:   8.4/10 (Голосів: 67)
   
Інші релізи
bot 
робот


З нами з: 30.09.07
Востаннє: 26.05.05
Повідомлень: 17412

2016-10-27 05:20  
Тему перенесено з Анонси релізів до форуму Мультфільми в HD


igor911

Anonymous 







2016-10-27 17:45  
Увага! Реліз оновлено!
Замінено відеоряд на якісніший.

liverpul8 
Новенький


З нами з: 24.11.15
Востаннє: 25.05.17
Повідомлень: 1

2016-10-28 15:40  
Будь ласка поставити субтитри українська мова
Anonymous 







2016-10-28 15:42  
liverpul8, українських субтитрів немає. Можливо, вони вийдуть на Blu-ray CEE, тоді додам.
77997997 
VIP


З нами з: 26.02.13
Востаннє: 22.08.17
Повідомлень: 367

2016-10-28 15:55  
igor911, ха-ха-ха, де Ви бачили, щоб Дісней додавав, хоч якусь Українську локалізацію на BluRay чи DVD??? Її точно не буде (ні нашої доріжки, ні наших субтитрів)... І так на майбутнє, Дісней окрім як на iTunes та Megogo нашу локалізацію ніде (BluRay, DVD) не додає...
atthe 
Частий відвідувач


З нами з: 29.01.08
Востаннє: 21.05.17
Повідомлень: 36

2016-11-09 01:37  
Нааадііійяяяяаааааа... таке враження, що наші новинарі на центральних каналах вчились говорити у акули і Дорі з мультика... Дуже розчулили в фіналі, голлівуд це вміє... Заставили Cry (2)
Anonymous 







2016-11-21 22:06  
Увага! Реліз оновлено!
Замінено звук на якісніший
Перезавантажте та підтримайте реліз!


"золото" на тиждень.

Ваш часовий пояс: GMT + 2 Години

Нова тема   Відповісти