Агенти розвідок / Гра / The Game (2014) (TV Mini-Series) 720p

Нові коментарі

Нова тема   Відповісти
Автор Повідомлення
Anonymous 







2016-10-23 11:48  
Агенти розвідок / Гра / The Game (2014) (TV Mini-Series) 720p



Альтернативний український постер


повнорозмірне зображення відкриється по кліку (з натиснутим CTRL чи кліком середньою кнопкою мишки - у новій вкладці)


Жанр: драма, трилер
Країна: Велика Британія



Кінокомпанія: BBC Cymru Wales, BBC Drama Productions
Режисер: Тобі Вітхаус
Актори: Том Гьюз, Браян Кокс, Пол Ріттер, Вікторія Гамільтон, Антон Лессер, Ґемма Чан

Сюжет:
Голова британської контррозвідки МІ-5, відомий під ім'ям "Татко" (Браян Кокс), створює комітет для перевірки отриманої від перебіжчика Аркадія Малінова інформації про існування проведеної на території Великобританії операції КДБ під назвою "Скло". До комітету увійшли кар'єрист Боббі Вотерхауз (Пол Ріттер), представник спецвідділу поліції Джим Фенчерч (Пол Дулі), фахівець по прослуховуванню Алан (Джонатан Аріс), його дружина, Сара Монтаг (Вікторія Гамільтон), фахівець з поведінкового аналізу, і Джо Ламбе (Том Гьюз), агент, що нещодавно провалив завдання в Польщі.


Тривалість: 1 серія: 52 хв (цілком серій: 6)
Перелік серій
Episode One
Episode Two
Episode Three
Episode Four
Episode Five
Episode Six
Якість:
Відео:
кодек:
розмір кадру: 1280 х 720
бітрейт: 3451 кб/с

Аудіо:
мова: українська
переклад: багатоголосий закадровий
кодек: 5.1
бітрейт: 448 кб/с
Info
General
Unique ID : 238291785373073289200957610934921896813 (0xB345541842155D1AA6EF37DAA2CCA36D)
Complete name : E:\Гра\HD_1.
Format :
Format version : Version 4 / Version 2
File size : 1.45 GiB
Duration : 52mn 2s
Overall bit rate : 3 978 Kbps
Encoded date : UTC 2016-10-20 14:16:42
Writing application : v8.8.0 ('Wind at my back') 64bit
Writing library : libebml v1.3.3 + v1.4.4
DURATION : 00:52:02.912000000
NUMBER_OF_FRAMES : 97591
NUMBER_OF_BYTES : 174883072
_STATISTICS_WRITING_APP : v8.8.0 ('Wind at my back') 64bit
_STATISTICS_WRITING_DATE_UTC : 2016-10-20 14:16:42
_STATISTICS_TAGS : BPS DURATION NUMBER_OF_FRAMES NUMBER_OF_BYTES

Video
ID : 1
Format : AVC
Format/Info : Advanced Video Codec
Format profile : [email protected]
Format settings, CABAC : No
Format settings, ReFrames : 1 frame
Format settings, GOP : M=1, N=12
Codec ID : V_MPEG4/ISO/AVC
Duration : 52mn 2s
Bit rate : 3 451 Kbps
Width : 1 280 pixels
Height : 720 pixels
Display aspect ratio : 16:9
Frame rate mode : Constant
Frame rate : 25.000 fps
Color space : YUV
Chroma subsampling : 4:2:0
Bit depth : 8 bits
Scan type : Progressive
Bits/(Pixel*Frame) : 0.150
Stream size : 1.25 GiB (87%)
Default : Yes
Forced : No
DURATION : 00:52:02.800000000
NUMBER_OF_FRAMES : 78070
NUMBER_OF_BYTES : 1377268844
_STATISTICS_WRITING_APP : v8.8.0 ('Wind at my back') 64bit
_STATISTICS_WRITING_DATE_UTC : 2016-10-20 14:16:42
_STATISTICS_TAGS : BPS DURATION NUMBER_OF_FRAMES NUMBER_OF_BYTES

Audio
ID : 2
Format : AC-3
Format/Info : Audio Coding 3
Mode extension : CM (complete main)
Format settings, Endianness : Big
Codec ID : A_AC3
Duration : 52mn 2s
Bit rate mode : Constant
Bit rate : 448 Kbps
Channel(s) : 6 channels
Channel positions : Front: L C R, Side: L R, LFE
Sampling rate : 48.0 KHz
Bit depth : 16 bits
Compression mode : Lossy
Stream size : 167 MiB (11%)
Title : ВОЛЯ CINE + HD
Language : Ukrainian
Default : Yes
Forced : No
Скріншоти





Подяки: Sando7 за запис та за постерти drobik87, DanyZemlyanoy
Особиста оцінка: 8 - мені сподобалося


Бронзовий реліз (на рейтинг впливає 75% завантаженого)
 Трекер:    Зареєстрований   

Завантажити / скачати серіал українською



відео для новачків



 Зареєстрований:   2016-10-23 11:48
 Розмір:   8.67 GB 
 Оцінка серіалу:   9.8/10 (Голосів: 5)
   
igor911 
Модератор відео


З нами з: 18.01.08
Востаннє: 02.12.20
Повідомлень: 15083

2016-10-23 16:14  
leicheman, на майбутнє - вставляй постер (поле бб-код) з нашого сайту постерів http://posters.hurtom.com/.

Додано через 2 години 29 хвилин 26 секунд:

leicheman написано:
нащо це?...скріншоти зробили клікабельними.
Мініатюра з посиланням на якісне повнорозмірне зображення - варіант, коли користувач отримує доступ до якісного постера без зайвого переобтяження сторінки "важкою" графікою.
щодо релізу Sando7 - у тому розділі є свої модератори.
Цитата:
нащо ви мої релізи правите?
п.5.1 Правил оформлення відеорелізу.
MAKAPOHHIK 
Відео Гуртом - фільмокрай
Відео Гуртом - фільмокрай


З нами з: 04.01.09
Востаннє: 26.11.20
Повідомлень: 931

2016-10-23 16:33  
leicheman написано:
кодек: 5.1

Це псевдо 5.1
Там стерео звук.

igor911 
Модератор відео


З нами з: 18.01.08
Востаннє: 02.12.20
Повідомлень: 15083

2016-10-23 16:33  
MAKAPOHHIK написано:
Там стерео звук.

інші канали пусті?

MAKAPOHHIK 
Відео Гуртом - фільмокрай
Відео Гуртом - фільмокрай


З нами з: 04.01.09
Востаннє: 26.11.20
Повідомлень: 931

2016-10-23 16:47  
igor911
ні. лівий та правий розкинуті по FL/FR/C/SL/SR

Anonymous 







2016-10-23 17:03  
MAKAPOHHIK
звук витянуто з .ts файла який було записано з тв паном Sando7

MAKAPOHHIK 
Відео Гуртом - фільмокрай
Відео Гуртом - фільмокрай


З нами з: 04.01.09
Востаннє: 26.11.20
Повідомлень: 931

2016-10-23 17:05  
leicheman написано:
звук витянуто з .ts файла який було записано з тв паном Sando7

Розумію.
На каналі цей фільм транслювали у псевдо 5.1. Джерелом був стерео звук.

Anonymous 







2016-10-23 17:13  
del
igor911 
Модератор відео


З нами з: 18.01.08
Востаннє: 02.12.20
Повідомлень: 15083

2016-10-23 17:54  
leicheman, до чого тут скріншоти? Постери були виготовлені Дизайнерами https://toloka.to/t1504-330#819104 https://toloka.to/t1504-330#819115 і ігнорити результат їх праці було б неправильно. Я не можу зрозуміти чим тобі заважає посилання на якісний оригінал?

У дамському щасті твій постер був 2,5 Мб.

Anonymous 







2016-10-23 18:22  
del
igor911 
Модератор відео


З нами з: 18.01.08
Востаннє: 02.12.20
Повідомлень: 15083

2016-10-23 18:32  
leicheman, Ок, я не втручатимусь у реліз, але ще раз зауважу тобі, що за наявності українського постера(-ів) на http://posters.hurtom.com їх розміщення звідти вважається пріорітетним.
Sando7 
Відео Гуртом - запис з ТБ
Відео Гуртом - запис з ТБ


З нами з: 04.05.09
Востаннє: 02.12.20
Повідомлень: 1568

2016-10-28 11:19  
Дійсно канали дивні... і лише LFE відрізняється ...і трохи відрізняються SL та SR від FL, FR та C які ідентичні
ось як з каналами серіалу Торчвуд з Волі, теж дещо канали SL та SR.. та ще LFE відрізняються від FL, FR та C
а ось фільм з Волі записав, там канали наче всі різні

Ваш часовий пояс: GMT + 2 Години

Нова тема   Відповісти