Дитинство лідера / The Childhood of a Leader (2015) 1080p Ukr/Eng | Sub Eng

Нові коментарі

Нова тема   Відповісти
Автор Повідомлення
Anonymous 







2016-10-20 01:09  
Дитинство лідера / The Childhood of a Leader (2015) 1080p Ukr/Eng | Sub Eng

Дитинство лідера / The Childhood of a Leader (2015) 1080p Ukr/Eng | Sub Eng


Жанр: артхаус, драма, жахи, детектив
Країна: Велика Британія, Франція, Бельгія

Премія Луїджі де Лаурентіса та "Венеціанські обрії - найкращий режиссер" Венеціанського кінофестивалю-2015



Кінокомпанія: Bow and Arrow Entertainment, Bron Capital Partners, FilmTeam
Режисер: Брейді Корбет / Brady Corbet
Актори: Роберт Патінсон / Robert Pattinson, Береніс Бежо / Bérénice Bejo, Ліам Каннінгем / Liam Cunningham, Стейсі Мартін / Stacy Martin, Софі Кертіс / Sophie Lane Curtis, Ребекка Дайан / Rebecca Dayan, Скотт Александр Янг / Scott Alexander Young, Джеремі Вілер / Jeremy Wheeler, Керолайн Болтон / Caroline Boulton, Лука Берковічі / Luca Bercovici та інші

Сюжет:
Події драми розгортаються у Франції в 1918 році. У родині американського дипломата (Ліам Каннінгем) та його дружини (Береніс Бежо) підростає син на ім'я Прескотт (Том Світ, Роберт Паттінсон). Стаючи мимовільним свідком ділових розмов батька, хлопчик формує своє ставлення до світового порядку. Разом з цим, надмірний деспотизм батьків призводить до того, що з Прескотта виростає тиран і диктатор, рівних якому світ ще не бачив.

офіційний трейлер (укр.субтитри):


Вікова категорія: 16+

Тривалість: 01:56:01
Якість: 1080p
Відео:
кодек:
розмір кадру: 1792 х 1080
бітрейт: 18 Мбіт/с [crf=17,5]

Аудіо # 1:
мова: українська
переклад: багатоголосий закадровий | ААА-sound
кодек: 5.1
бітрейт: 384 Кбіт/с
Інформація про озвучення
Режисер: Олександар Єфімов
Ролі озвучили: Юлія Перенчук, Дмитро Завадський, Ірина Грей, Андрій Федінчик, Андрій Альохін, Юрій Ребрик, Олександар Єфімов та інші


Фільм озвучено студією ААА-sound у 2016 році на замовлення компанії "Вольга-Україна"
Аудіо # 2:
мова: англійська
переклад: оригінал
кодек: 5.1
бітрейт: 1509 Кбіт/с

Аудіо # 3:
мова: англійська
переклад: коментарі режисера Брейді Корбета
кодек: 2.0
бітрейт: 192 Кбіт/с

Субтитри # 1-2:
мова: англійська (повні, форсовані)
тип: програмні (м'які)
формат: *.srt

Збережено оригінальні розділи, як на Blu-ray
Info
Код:
Format                      :
Format version              : Version 4 / Version 2
File size                   : 16.3 GiB
Duration                    : 1 h 56 min
Overall bit rate            : 20.1 Mb/s

Video
ID                          : 1
Format                      : AVC
Format/Info                 : Advanced Video Codec
Format profile              : [email protected]
Format settings, CABAC      : Yes
Format settings, ReFrames   : 4 frames
Codec ID                    : V_MPEG4/ISO/AVC
Duration                    : 1 h 56 min
Bit rate                    : 18.0 Mb/s
Width                       : 1 792 pixels
Height                      : 1 080 pixels
Display aspect ratio        : 5:3
Frame rate mode             : Constant
Frame rate                  : 23.976 (24000/1001) FPS
Color space                 : YUV
Chroma subsampling          : 4:2:0
Bit depth                   : 8 bits
Scan type                   : Progressive
Bits/(Pixel*Frame)          : 0.389
Stream size                 : 14.6 GiB (90%)
Title                       : Дитинство лідера / The Childhood of a Leader (2015) 1080p [uhdbits-SA89]
Writing library             : core 148 r2705 3f5ed56
Encoding settings           : cabac=1 / ref=4 / deblock=1:-3:-3 / analyse=0x3:0x133 / me=umh / subme=10 / psy=1 / psy_rd=1.00:0.00 / mixed_ref=1 / me_range=24 / chroma_me=1 / trellis=2 / 8x8dct=1 / cqm=0 / deadzone=21,11 / fast_pskip=1 / chroma_qp_offset=-2 / threads=6 / lookahead_threads=1 / sliced_threads=0 / nr=0 / decimate=1 / interlaced=0 / bluray_compat=0 / constrained_intra=0 / bframes=8 / b_pyramid=2 / b_adapt=2 / b_bias=0 / direct=3 / weightb=1 / open_gop=0 / weightp=2 / keyint=250 / keyint_min=25 / scenecut=40 / intra_refresh=0 / rc_lookahead=60 / rc=crf / mbtree=0 / crf=17.5 / qcomp=0.60 / qpmin=0 / qpmax=69 / qpstep=4 / vbv_maxrate=62500 / vbv_bufsize=78125 / crf_max=0.0 / nal_hrd=none / filler=0 / ip_ratio=1.40 / pb_ratio=1.30 / aq=1:0.80
Language                    : English
Default                     : Yes
Forced                      : No

Audio #1
ID                          : 2
Format                      : AC-3
Format/Info                 : Audio Coding 3
Mode extension              : CM (complete main)
Format settings, Endianness : Big
Codec ID                    : A_AC3
Duration                    : 1 h 55 min
Bit rate mode               : Constant
Bit rate                    : 384 kb/s
Channel(s)                  : 6 channels
Channel positions           : Front: L C R, Side: L R, LFE
Sampling rate               : 48.0 kHz
Frame rate                  : 31.250 FPS (1536 spf)
Bit depth                   : 16 bits
Compression mode            : Lossy
Stream size                 : 318 MiB (2%)
Title                       : MVO [AAA-sound, iTunes] 5.1 384 Kbps [Hurtom]
Language                    : Ukrainian
Default                     : Yes
Forced                      : Yes

Audio #2
ID                          : 3
Format                      :
Format/Info                 : Digital Theater Systems
Mode                        : 16
Format settings, Endianness : Big
Codec ID                    : A_DTS
Duration                    : 1 h 56 min
Bit rate mode               : Constant
Bit rate                    : 1 509 kb/s
Channel(s)                  : 6 channels
Channel positions           : Front: L C R, Side: L R, LFE
Sampling rate               : 48.0 kHz
Frame rate                  : 93.750 FPS (512 spf)
Bit depth                   : 24 bits
Compression mode            : Lossy
Stream size                 : 1.22 GiB (7%)
Title                       : Original, 5.1 1509 Kbps
Language                    : English
Default                     : No
Forced                      : No

Audio #3
ID                          : 4
Format                      : AC-3
Format/Info                 : Audio Coding 3
Mode extension              : CM (complete main)
Format settings, Endianness : Big
Codec ID                    : A_AC3
Duration                    : 1 h 56 min
Bit rate mode               : Constant
Bit rate                    : 192 kb/s
Channel(s)                  : 2 channels
Channel positions           : Front: L R
Sampling rate               : 48.0 kHz
Frame rate                  : 31.250 FPS (1536 spf)
Bit depth                   : 16 bits
Compression mode            : Lossy
Stream size                 : 159 MiB (1%)
Title                       : Commentary: Brady Corbet
Language                    : English
Default                     : No
Forced                      : No

Text #1
ID                          : 5
Format                      : UTF-8
Codec ID                    : S_TEXT/UTF8
Codec ID/Info               : UTF-8 Plain Text
Duration                    : 1 h 53 min
Bit rate                    : 42 b/s
Count of elements           : 1051
Stream size                 : 35.3 KiB (0%)
Title                       : Eng full
Language                    : English
Default                     : No
Forced                      : No

Text #2
ID                          : 6
Format                      : UTF-8
Codec ID                    : S_TEXT/UTF8
Codec ID/Info               : UTF-8 Plain Text
Duration                    : 1 h 33 min
Bit rate                    : 14 b/s
Count of elements           : 302
Stream size                 : 9.93 KiB (0%)
Title                       : Eng Forced
Language                    : English
Default                     : No
Forced                      : No

Menu
00:00:00.000                : en:Chapter 01
00:06:07.993                : en:Chapter 02
00:14:45.593                : en:Chapter 03
00:21:42.760                : en:Chapter 04
00:35:08.898                : en:Chapter 05
00:44:30.751                : en:Chapter 06
00:55:25.447                : en:Chapter 07
01:05:30.301                : en:Chapter 08
01:16:51.273                : en:Chapter 09
01:24:24.893                : en:Chapter 10
01:32:24.664                : en:Chapter 11
01:45:14.767                : en:Chapter 12


Джерело: &
Подяка за українську доріжку п.AngryBirdsUA, за допомогу п.krigg070




ЗАЛИШАЙТЕСЬ ЯКОМОГА ДОВШЕ НА РОЗДАЧІ!
ЗАВАНТАЖИВ САМ - ДАЙ ЗАВАНТАЖИТИ ІНШИМ


 Трекер:    Зареєстрований   

Завантажити / скачати фільм українською



відео для новачків



 Зареєстрований:   2017-02-11 04:25
 Розмір:   16.32 GB 
 Оцінка фільму:   3.4/10 (Голосів: 16)
   
Anonymous 







2017-02-11 04:53  
Реліз оновлено!
Замінено відеоряд на

kabanchik_v 
Новенький


З нами з: 09.05.13
Востаннє: 21.05.17
Повідомлень: 21

2017-03-08 12:14  
Викладіть будь-ласка розміром до 1,5 Гб з оригінальною доріжкою, субтитрами та у форматі avi.
Дякую

Ваш часовий пояс: GMT + 2 Години

Нова тема   Відповісти