Дитинство лідера / The Childhood of a Leader (2015) 720p Ukr/Eng | Sub Eng

Нові коментарі

Нова тема   Відповісти
Автор Повідомлення
Anonymous 







2016-10-20 00:09  
Дитинство лідера / The Childhood of a Leader (2015) 720p Ukr/Eng | Sub Eng

Дитинство лідера / The Childhood of a Leader (2015) 720p Ukr/Eng | Sub Eng


Жанр: артхаус, драма, жахи, детектив
Країна: Велика Британія, Франція, Бельгія

Премія Луїджі де Лаурентіса та "Венеціанські обрії - найкращий режиссер" Венеціанського кінофестивалю-2015



Кінокомпанія: Bow and Arrow Entertainment, Bron Capital Partners, FilmTeam
Режисер: Брейді Корбет / Brady Corbet
Актори: Роберт Патінсон / Robert Pattinson, Береніс Бежо / Bérénice Bejo, Ліам Каннінгем / Liam Cunningham, Стейсі Мартін / Stacy Martin, Софі Кертіс / Sophie Lane Curtis, Ребекка Дайан / Rebecca Dayan, Скотт Александр Янг / Scott Alexander Young, Джеремі Вілер / Jeremy Wheeler, Керолайн Болтон / Caroline Boulton, Лука Берковічі / Luca Bercovici та інші

Сюжет:
Події драми розгортаються у Франції в 1918 році. У родині американського дипломата (Ліам Каннінгем) та його дружини (Береніс Бежо) підростає син на ім'я Прескотт (Том Світ, Роберт Паттінсон). Стаючи мимовільним свідком ділових розмов батька, хлопчик формує своє ставлення до світового порядку. Разом з цим, надмірний деспотизм батьків призводить до того, що з Прескотта виростає тиран і диктатор, рівних якому світ ще не бачив.

офіційний трейлер (укр.субтитри):


Вікова категорія: 16+

Тривалість: 01:56:01
Якість: 720p
Відео:
кодек:
розмір кадру: 1196 х 720
бітрейт: 6935 Кбіт/с [crf=17,4]

Аудіо # 1:
мова: українська
переклад: багатоголосий закадровий | ААА-sound
кодек: 5.1
бітрейт: 384 Кбіт/с
Інформація про озвучення
Режисер: Олександар Єфімов
Ролі озвучили: Юлія Перенчук, Дмитро Завадський, Ірина Грей, Андрій Федінчик, Андрій Альохін, Юрій Ребрик, Олександар Єфімов та інші

Фільм озвучено студією ААА-sound у 2016 році на замовлення компанії "Вольга-Україна"
Аудіо # 2:
мова: англійська
переклад: оригінал
кодек: 5.1
бітрейт: 640 Кбіт/с

Субтитри:
мова: англійська
тип: програмні (м'які)
формат: *.srt
Info та log
Код:
Format                      :
Format version              : Version 4 / Version 2
File size                   : 6.45 GiB
Duration                    : 1 h 56 min
Overall bit rate            : 7 961 kb/s

Video
ID                          : 1
Format                      : AVC
Format/Info                 : Advanced Video Codec
Format profile              : [email protected]
Format settings, CABAC      : Yes
Format settings, ReFrames   : 9 frames
Codec ID                    : V_MPEG4/ISO/AVC
Duration                    : 1 h 56 min
Bit rate                    : 6 935 kb/s
Width                       : 1 196 pixels
Height                      : 720 pixels
Display aspect ratio        : 5:3
Frame rate mode             : Constant
Frame rate                  : 23.976 (24000/1001) FPS
Color space                 : YUV
Chroma subsampling          : 4:2:0
Bit depth                   : 8 bits
Scan type                   : Progressive
Bits/(Pixel*Frame)          : 0.336
Stream size                 : 5.62 GiB (87%)
Title                       : Дитинство лідера / The Childhood of a Leader (2015) 720p [Rutracker]
Writing library             : core 148 r2744 b97ae06
Encoding settings           : cabac=1 / ref=9 / deblock=1:-3:-3 / analyse=0x3:0x113 / me=umh / subme=10 / psy=1 / psy_rd=1.15:0.00 / mixed_ref=1 / me_range=24 / chroma_me=1 / trellis=2 / 8x8dct=1 / cqm=0 / deadzone=21,11 / fast_pskip=1 / chroma_qp_offset=-2 / threads=6 / lookahead_threads=1 / sliced_threads=0 / nr=0 / decimate=0 / interlaced=0 / bluray_compat=0 / constrained_intra=0 / bframes=10 / b_pyramid=2 / b_adapt=2 / b_bias=0 / direct=1 / weightb=1 / open_gop=0 / weightp=2 / keyint=250 / keyint_min=23 / scenecut=40 / intra_refresh=0 / rc_lookahead=60 / rc=crf / mbtree=0 / crf=17.4 / qcomp=0.67 / qpmin=0 / qpmax=69 / qpstep=4 / vbv_maxrate=62500 / vbv_bufsize=78125 / crf_max=0.0 / nal_hrd=none / filler=0 / ip_ratio=1.30 / pb_ratio=1.20 / aq=1:0.72
Language                    : English
Default                     : Yes
Forced                      : No

Audio #1
ID                          : 2
Format                      : AC-3
Format/Info                 : Audio Coding 3
Mode extension              : CM (complete main)
Format settings, Endianness : Big
Codec ID                    : A_AC3
Duration                    : 1 h 55 min
Bit rate mode               : Constant
Bit rate                    : 384 kb/s
Channel(s)                  : 6 channels
Channel positions           : Front: L C R, Side: L R, LFE
Sampling rate               : 48.0 kHz
Frame rate                  : 31.250 FPS (1536 spf)
Bit depth                   : 16 bits
Compression mode            : Lossy
Stream size                 : 318 MiB (5%)
Title                       : MVO [AAA-sound, iTunes] 5.1 384 Kbps [Hurtom]
Language                    : Ukrainian
Default                     : Yes
Forced                      : Yes

Audio #2
ID                          : 3
Format                      : AC-3
Format/Info                 : Audio Coding 3
Mode extension              : CM (complete main)
Format settings, Endianness : Big
Codec ID                    : A_AC3
Duration                    : 1 h 56 min
Bit rate mode               : Constant
Bit rate                    : 640 kb/s
Channel(s)                  : 6 channels
Channel positions           : Front: L C R, Side: L R, LFE
Sampling rate               : 48.0 kHz
Frame rate                  : 31.250 FPS (1536 spf)
Bit depth                   : 16 bits
Compression mode            : Lossy
Stream size                 : 531 MiB (8%)
Title                       : Original, 5.1 640 Kbps
Language                    : English
Default                     : No
Forced                      : No

Text
ID                          : 4
Format                      : UTF-8
Codec ID                    : S_TEXT/UTF8
Codec ID/Info               : UTF-8 Plain Text
Duration                    : 1 h 53 min
Bit rate                    : 40 b/s
Count of elements           : 1100
Stream size                 : 33.4 KiB (0%)
Title                       : Eng full
Language                    : English
Default                     : No
Forced                      : No


Код:
[info]: frame I:772 Avg QP:14.09 size: 95973
[info]: frame P:27471 Avg QP:15.35 size: 53936
[info]: frame B:138665 Avg QP:17.37 size: 32302


Джерело: &
Подяка за українську доріжку п.AngryBirdsUA




ЗАЛИШАЙТЕСЬ ЯКОМОГА ДОВШЕ НА РОЗДАЧІ!
ЗАВАНТАЖИВ САМ - ДАЙ ЗАВАНТАЖИТИ ІНШИМ


 Трекер:    Зареєстрований   

Завантажити / скачати фільм українською



відео для новачків



 Зареєстрований:   2017-02-11 01:29
 Розмір:   6.45 GB 
 Оцінка фільму:   3.6/10 (Голосів: 17)
   
TeronUA 
VIP


З нами з: 13.02.09
Востаннє: 21.09.17
Повідомлень: 286

2017-02-03 12:51  
Треба подивитись))
Дякую)))

Anonymous 







2017-02-11 01:54  
Реліз оновлено!
Замінено відеоряд на

kabanchik_v 
Новенький


З нами з: 09.05.13
Востаннє: 22.09.17
Повідомлень: 22

2017-03-08 12:14  
Викладіть будь-ласка розміром до 1,5 Гб з оригінальною доріжкою, субтитрами та у форматі avi.
Дякую

Ваш часовий пояс: GMT + 2 Години

Нова тема   Відповісти