Зупинись і гори (Сезон 3) / Halt and Catch Fire (Season 3) (2016) 1080p Ukr/Eng | Sub Eng

Нові коментарі

Нова тема   Відповісти
Автор Повідомлення
dilnix 
Поважний учасник


З нами з: 22.07.12
Востаннє: 27.11.20
Повідомлень: 191

2016-10-18 08:53  
Зупинись і гори (Сезон 3) / Halt and Catch Fire (Season 3) (2016) 1080p Ukr/Eng | Sub Eng

Зупинись і гори (Сезон 3) / Halt and Catch Fire (Season 3) (2016) 1080p Ukr/Eng | Sub Eng

Жанр: драма
Країна: США



Кінокомпанія / телеканал: AMC Studios
Творці серіали: Крістофер Кентвелл, Крістофер Роджерс
Актори: Лі Пейс, Скут МакНейрі, Макензі Дейвіс, Кері Біше, Тобі Гас та інші

Сюжет:
Дія серіалу відбувається у вісімдесяті. Він розповідає про бум персональних комп’ютерів з погляду трьох персонажів – новатора, інженера і вундеркінда, чиї інновації кидають виклик тогочасним корпоративним велетням. Їхні особисті та професійні стосунки переживуть випробування жадобою та амбіціями і сформують нову культуру техаської Кремнієвої прерії.
Перелік серій
1. Valley of the Heart's Delight
2. One Way or Another
3. Flipping the Switch
4. Rules of Honorable Play
5. Yerba Buena
6. And She Was
7. The Threshold
8. You Are Not Safe
9. NIM
10. NeXT
Тривалість: 1 серія: ~44 хв. (цілком серій в сезоні: 10)
Якість: 1080p

Відео:
кодек:
розмір кадру: 1916 х 1076
бітрейт: ~5230 кб/с

Аудіо # 1:
мова: українська
переклад: багатоголосий закадровий, ТакТребаПродакшн на замовлення телеканалу
кодек: 2.0
бітрейт: 192 кб/с

Аудіо # 1:
мова: англійська
переклад: оригінал
кодек: 5.1
бітрейт: 384 кб/с

Субтитри:
мова: англійська
тип: програмні (м'які)
формат: .srt
Скріншоти
Info
General
Unique ID : 117071225796544349464679695034131237750 (0x5813191283DF5ECA246312B7EE5D4B76)
Complete name : Halt.and.Catch.Fire.S03E01.Valley.of.the.Hearts.Delight.1080p..Ukr[TTP].Eng.
Format :
Format version : Version 4 / Version 2
File size : 1.78 GiB
Duration : 43 min 56 s
Overall bit rate : 5 809 kb/s
Encoded date : UTC 2016-10-18 04:18:57
Writing application : v9.2.0 ('Photograph') 64bit
Writing library : libebml v1.3.3 + v1.4.4

Video
ID : 1
Format : AVC
Format/Info : Advanced Video Codec
Format profile : [email protected]
Format settings, CABAC : Yes
Format settings, ReFrames : 4 frames
Codec ID : V_MPEG4/ISO/AVC
Duration : 43 min 56 s
Bit rate : 5 230 kb/s
Width : 1 916 pixels
Height : 1 076 pixels
Display aspect ratio : 16:9
Frame rate mode : Constant
Frame rate : 23.976 (24000/1001) FPS
Color space : YUV
Chroma subsampling : 4:2:0
Bit depth : 8 bits
Scan type : Progressive
Bits/(Pixel*Frame) : 0.106
Stream size : 1.61 GiB (90%)
Language : English
Default : Yes
Forced : No
Color range : Limited
Color primaries : BT.709
Transfer characteristics : BT.709
Matrix coefficients : BT.709

Audio #1
ID : 2
Format : AC-3
Format/Info : Audio Coding 3
Mode extension : CM (complete main)
Format settings, Endianness : Big
Codec ID : A_AC3
Duration : 43 min 56 s
Bit rate mode : Constant
Bit rate : 192 kb/s
Channel(s) : 2 channels
Channel positions : Front: L R
Sampling rate : 48.0 kHz
Frame rate : 31.250 FPS (1536 spf)
Compression mode : Lossy
Stream size : 60.3 MiB (3%)
Language : Ukrainian
Default : Yes
Forced : No

Audio #2
ID : 3
Format : AC-3
Format/Info : Audio Coding 3
Mode extension : CM (complete main)
Format settings, Endianness : Big
Codec ID : A_AC3
Duration : 43 min 56 s
Bit rate mode : Constant
Bit rate : 384 kb/s
Channel(s) : 6 channels
Channel positions : Front: L C R, Side: L R, LFE
Sampling rate : 48.0 kHz
Frame rate : 31.250 FPS (1536 spf)
Compression mode : Lossy
Stream size : 121 MiB (7%)
Language : English
Default : No
Forced : No

Text
ID : 4
Format : UTF-8
Codec ID : S_TEXT/UTF8
Codec ID/Info : UTF-8 Plain Text
Duration : 43 min 24 s
Bit rate : 92 b/s
Count of elements : 829
Stream size : 29.4 KiB (0%)
Language : English
Default : No
Forced : No
Роздача буде доповнюватись із надходженням та опрацюванням нових серій сезону!

Роздачу оновлено 25.12.2016. Додано останню серію №10. Завантажте наново торрент-файл!


Джерело та подяки: Команда запису з ТБ Воля
Підготовка локалізованого постера - власноруч (користуйтесь без обмежень).



Бронзовий реліз (на рейтинг впливає 75% завантаженого)
 Трекер:    Зареєстрований   

Завантажити / скачати серіал українською



відео для новачків



 Зареєстрований:   2016-12-25 16:51
 Розмір:   18.29 GB 
 Оцінка серіалу:   9.7/10 (Голосів: 22)
   
OL3X 
VIP


З нами з: 25.11.15
Востаннє: 26.11.20
Повідомлень: 459

2016-10-18 15:08  
Дякую за 1080р!
[Captain] 
Попереджень: 1
Попереджень: 1 


З нами з: 18.02.12
Востаннє: 25.11.20
Повідомлень: 2338

2016-10-18 17:51  
dilnix
яким шрифтом ви назву серіалу на постері написали? я можу спробувати прибрати оригінальну

OL3X
не думаю, що вам вам серіал сподобається.

dilnix 
Поважний учасник


З нами з: 22.07.12
Востаннє: 27.11.20
Повідомлень: 191

2016-10-18 19:23  
[Captain] написано:
яким шрифтом ви назву серіалу на постері написали? я можу спробувати прибрати оригінальну

Не пом'ятаю зараз, пізніше за компом буду, гляну. Якась версія Санс'у.... Але я потім об'єкт розтягував, щоб зробити більш подібним до оригінального.
І так, я вже теж думав про те щоб прибрати оригінальний текст. Просто часу не було приділити красі... Чисто в паузах між завданнями в офісі Happy

OL3X 
VIP


З нами з: 25.11.15
Востаннє: 26.11.20
Повідомлень: 459

2016-10-19 00:17  
[Captain] написано:
не думаю, що вам вам серіал сподобається

Ще літом глянув два сезони, дуже сподобалося.

[Captain] 
Попереджень: 1
Попереджень: 1 


З нами з: 18.02.12
Востаннє: 25.11.20
Повідомлень: 2338

2016-10-19 09:35  
OL3X
Приємно вражений!

dilnix 
Поважний учасник


З нами з: 22.07.12
Востаннє: 27.11.20
Повідомлень: 191

2016-11-07 22:06  
Роздачу оновлено. Додано серію №3. Завантажте наново торрент-файл!
dilnix 
Поважний учасник


З нами з: 22.07.12
Востаннє: 27.11.20
Повідомлень: 191

2016-11-09 14:57  
Роздачу оновлено. Додано серію №4. Завантажте наново торрент-файл!
dilnix 
Поважний учасник


З нами з: 22.07.12
Востаннє: 27.11.20
Повідомлень: 191

2016-11-18 16:12  
Роздачу оновлено. Додано серію №5. Завантажте наново торрент-файл!
dilnix 
Поважний учасник


З нами з: 22.07.12
Востаннє: 27.11.20
Повідомлень: 191

2016-11-23 21:08  
Роздачу оновлено. Додано серію №6. Завантажте наново торрент-файл!
dilnix 
Поважний учасник


З нами з: 22.07.12
Востаннє: 27.11.20
Повідомлень: 191

2016-12-01 15:49  
Роздачу оновлено. Додано серію №7. Завантажте наново торрент-файл!
Personal Jesus [dm] 
Свій


З нами з: 09.04.13
Востаннє: 28.11.20
Повідомлень: 54

2016-12-01 22:56  
Прекрасний серіал
dilnix 
Поважний учасник


З нами з: 22.07.12
Востаннє: 27.11.20
Повідомлень: 191

2016-12-13 12:06  
Роздачу оновлено. Додано серію №8 та №9. Завантажте наново торрент-файл!
dilnix 
Поважний учасник


З нами з: 22.07.12
Востаннє: 27.11.20
Повідомлень: 191

2016-12-25 16:52  
Роздачу оновлено. Додано останню серію №10. Завантажте наново торрент-файл!
Cermit 
Новенький


З нами з: 12.07.12
Востаннє: 30.09.20
Повідомлень: 1

2017-01-08 18:13  
Дуже чекав 3 сезону! дякую!
zgdsqs1grs81gs8erf 
Новенький


З нами з: 15.03.17
Востаннє: 25.05.20
Повідомлень: 11

2017-05-03 00:42  
Cermit
А тепер дуже чекаємо четвертий ))

dilnix 
Поважний учасник


З нами з: 22.07.12
Востаннє: 27.11.20
Повідомлень: 191

2020-06-10 09:23  
Панове, на жаль заради очищення простору на сервері, мушу повідомити, що починаючи з 13 Червня, всі файли поточної роздачі будуть видалені, і я більше не підтримуватиму цю роздачу.
Всі охочі ще поки мають час викачати собі файли та стати на роздачу власноруч.

Дякую за увагу.
Прошу вибачення за незручності.

Ваш часовий пояс: GMT + 2 Години

Нова тема   Відповісти