Скубі-Ду! Відпочинок з привидами / Scooby-Doo! Haunted Holidays (2012) HDTV 1080i Ukr/Eng | Sub Eng

Нові коментарі

Нова тема   Відповісти
Автор Повідомлення
Anonymous 







2016-10-15 15:55  
Скубі-Ду! Відпочинок з привидами / Scooby-Doo! Haunted Holidays (2012) HDTV 1080i Ukr/Eng | Sub Eng

Скубі-Ду! Відпочинок з привидами / Scooby-Doo! Haunted Holidays (2012) HDTV 1080i Ukr/Eng | Sub Eng


Жанр: анімація, короткометражний, комедія
Країна: США



Кінокомпанія: Warner Bros. Animation
Режисер: Віктор Кук / Victor Cook
Актори: Скубі-Ду / Scooby-Doo
Ролі озвучують: Френк Велкер / Frenk Welker, Мелінда Кон / Mindy Cohn, Грей ДеЛісл / Grey DeLisle, Меттью Ліллард / Metthew Lillard, Карлос Алазракі / Carlos Alazraqui, Кріспін Фрімен / Crispin Freeman, Фред Татаскьор / Fred Tatasciore

Сюжет:
Різдвяний спеціальний випуск. Скубі-Ду та команда беруть участь у різдвяному параді, де зустрічаються зі Зловісним Сніговиком. Через що всім загрожує небезпека.

Тривалість: 00:21:49
Якість: HDTV 1080i
Відео:
кодек:
розмір кадру: 1920 х 1080
бітрейт: 5813 Кбіт/с

Аудіо # 1:
мова: українська
переклад: багатоголосий закадровий
кодек: 2.0
бітрейт: 192 Кбіт/с

Аудіо # 2:
мова: англійська
переклад: оригінал
кодек: 2.0
бітрейт: 384 Кбіт/с

Субтитри:
мова: англійська
тип: програмні (м'які)
формат: *.srt

Збережено оригінальні розділи.
Info
Код:
Complete name               : Scooby-Doo! Haunted Holidays (2012) [Ukr,Eng sub.Eng] HDTV 1080i [Hurtom].
Format                      :
Format version              : Version 4 / Version 2
File size                   : 998 MiB
Duration                    : 21 min
Overall bit rate            : 6 393 kb/s
Movie name                  : Скубі-Ду! Відпочинок з привидами / Scooby-Doo! Haunted Holidays (2012) [Ukr,Eng sub.Eng] HDTV 1080i [Hurtom] by igor911
Released date               : 2012
Cover                       : Yes
Comment                     : http://www.imdb.com/title/tt3328510/
Attachments                 : cover.jpg
DIRECTOR                    : Віктор Кук / Victor Cook
GENRE                       : анімація, короткометражний, комедія
SYNOPSIS                    : Різдвяний спеціальний випуск. Скубі-Ду та команда беруть участь у різдвяному параді, де зустрічаються зі Зловісним Сніговиком. Через що всім загрожує небезпека.
Url                         : https://toloka.to/t76716

Video
ID                          : 1
Format                      : AVC
Format/Info                 : Advanced Video Codec
Format profile              : [email protected]
Format settings, CABAC      : Yes
Format settings, ReFrames   : 4 frames
Format settings, GOP        : M=3, N=30
Codec ID                    : V_MPEG4/ISO/AVC
Duration                    : 21 min
Bit rate                    : 5 813 kb/s
Width                       : 1 920 pixels
Height                      : 1 080 pixels
Display aspect ratio        : 16:9
Frame rate mode             : Constant
Frame rate                  : 25.000 FPS
Color space                 : YUV
Chroma subsampling          : 4:2:0
Bit depth                   : 8 bits
Scan type                   : MBAFF
Scan type, store method     : Interleaved fields
Scan order                  : Top Field First
Bits/(Pixel*Frame)          : 0.112
Stream size                 : 908 MiB (91%)
Title                       : Скубі-Ду! Відпочинок з привидами / Scooby-Doo! Haunted Holidays (2012) HDTV 1080i
Language                    : English
Default                     : Yes
Forced                      : No

Audio #1
ID                          : 2
Format                      : AC-3
Format/Info                 : Audio Coding 3
Mode extension              : CM (complete main)
Format settings, Endianness : Big
Codec ID                    : A_AC3
Duration                    : 21 min
Bit rate mode               : Constant
Bit rate                    : 192 kb/s
Channel(s)                  : 2 channels
Channel positions           : Front: L R
Sampling rate               : 48.0 kHz
Frame rate                  : 31.250 FPS (1536 spf)
Compression mode            : Lossy
Stream size                 : 30.0 MiB (3%)
Title                       : MVO [ICTV] 2.0 192 Kbps [Hurtom-igor911,aaa4523]
Language                    : Ukrainian
Default                     : Yes
Forced                      : No

Audio #2
ID                          : 3
Format                      : AC-3
Format/Info                 : Audio Coding 3
Mode extension              : CM (complete main)
Format settings, Endianness : Big
Codec ID                    : A_AC3
Duration                    : 21 min
Bit rate mode               : Constant
Bit rate                    : 384 kb/s
Channel(s)                  : 2 channels
Channel positions           : Front: L R
Sampling rate               : 48.0 kHz
Frame rate                  : 31.250 FPS (1536 spf)
Compression mode            : Lossy
Stream size                 : 60.0 MiB (6%)
Title                       : Original, 2.0 384 Kbps
Language                    : English
Default                     : No
Forced                      : No

Text
ID                          : 4
Format                      : UTF-8
Codec ID                    : S_TEXT/UTF8
Codec ID/Info               : UTF-8 Plain Text
Duration                    : 20 min
Bit rate                    : 54 b/s
Count of elements           : 228
Stream size                 : 8.25 KiB (0%)
Language                    : English
Default                     : No
Forced                      : No

Menu
00:00:00.000                : en:Chapter 01
00:02:51.000                : en:Chapter 02
00:07:20.000                : en:Chapter 03
00:12:48.500                : en:Chapter 04
00:21:16.000                : en:Chapter 05


Джерело: &
Український звук: igor911 зведення, aaa4523 запис з ТБ.





ЗАЛИШАЙТЕСЬ ЯКОМОГА ДОВШЕ НА РОЗДАЧІ!
СКАЧАВ САМ - ДАЙ СКАЧАТИ ІНШИМ


 Трекер:    Зареєстрований   

Завантажити / скачати мультфільм українською



відео для новачків



 Зареєстрований:   2016-10-15 16:23
 Розмір:   998 MB 
 Оцінка мультфільму:   3.6/10 (Голосів: 14)
   
bot 
робот


З нами з: 30.09.07
Востаннє: 26.05.05
Повідомлень: 17362

2016-10-15 16:23  
Тему перенесено з Анонси релізів до форуму Мультфільми в HD


igor911

Anonymous 







2016-10-15 17:12  
avi
Ваш часовий пояс: GMT + 2 Години

Нова тема   Відповісти