Хардбол / Hard Ball (2001) AVC 2xUkr/Eng | sub Eng

Нові коментарі

Нова тема   Відповісти
Автор Повідомлення
Arsenfpu 
Відео Гуртом - фільмокрай
Відео Гуртом - фільмокрай


З нами з: 30.04.09
Востаннє: 12.08.20
Повідомлень: 7139

2016-10-15 14:40  
Хардбол / Hard Ball (2001) AVC 2xUkr/Eng | sub Eng

Хардбол / Hard Ball (2001) AVC 2xUkr/Eng | sub Eng


Жанр: драма, спорт
Країна: США



Кінокомпанія: Fireworks Pictures, GHS Productions KG, Munich Film Partners & Company (MFP) GHS Productions
Режисер: Браян Роббінс
Актори: Кіану Рівз, Дайан Лейн, Джон Гокс, Браян Хірн, Джуліан Гріффіт, Майкл Б. Джордан, А. Делон Елліс мол., Крістофер Лофтон, Майкл Перкінс, Брайан М. Рід

Сюжет:
Коннор О'Ніл (Рівз) - завзятий гравець. Заборгувавши одного разу крупну суму букмекерам, які не посоромляться застосувати до нього силові заходи, він звертається по допомогу до свого друга. Замість грошей той пропонує йому роботу - стати на час тренером дитячої бейсбольної команди, що складається з одних важких підлітків, до того ж чорношкірих. Зрозумівши, що це його єдиний шанс, Коннор хай і неохоче, але погоджується.


Тривалість: 01:46:03
Якість: AVC
Відео:
кодек:
розмір кадру: 1 024X576
бітрейт: 2 399 кб/с

Аудіо # 1:
мова: українська
переклад: багатоголосий закадровий
кодек: 2.0
бітрейт: 192 кб/с

Аудіо # 2:
мова: українська
переклад: багатоголосий закадровий (з 5.1)
кодек: 2.0
бітрейт: 192 кб/с

Аудіо # 1:
мова: англійська
переклад: оригінал
кодек: 2.0
бітрейт: 192 кб/с
Скріншоти














Про файл
General
Unique ID : 123867914478831359503643621218971677227 (0x5D3017B24C39C50D50891C8D1591F22B)
Complete name : C:\Hard Ball (2001) [2xUkr,Eng] AVC [Hurtom].
Format :
Format version : Version 4 / Version 2
File size : 2.21 GiB
Duration : 1 h 46 min
Overall bit rate : 2 977 kb/s
Movie name : Хардбол / Hard Ball (2001)
Encoded date : UTC 2020-07-25 12:41:59
Writing application : v21.0.0 ('Tardigrades Will Inherit The Earth') 32-bit
Writing library : libebml v1.3.5 + v1.4.8
Cover : Yes
Attachments : cover.jpg

Video
ID : 1
Format : AVC
Format/Info : Advanced Video Codec
Format profile : [email protected]
Format settings, CABAC : Yes
Format settings, ReFrames : 4 frames
Codec ID : V_MPEG4/ISO/AVC
Duration : 1 h 46 min
Bit rate : 2 399 kb/s
Width : 1 024 pixels
Height : 576 pixels
Display aspect ratio : 16:9
Frame rate mode : Constant
Frame rate : 23.976 (24000/1001) FPS
Color space : YUV
Chroma subsampling : 4:2:0
Bit depth : 8 bits
Scan type : Progressive
Bits/(Pixel*Frame) : 0.170
Stream size : 1.78 GiB (81%)
Writing library : core 157 r2935 545de2f
Encoding settings : cabac=1 / ref=3 / deblock=1:-1:-1 / analyse=0x3:0x113 / me=hex / subme=7 / psy=1 / psy_rd=1.00:0.15 / mixed_ref=1 / me_range=16 / chroma_me=1 / trellis=1 / 8x8dct=1 / cqm=0 / deadzone=21,11 / fast_pskip=1 / chroma_qp_offset=-3 / threads=12 / lookahead_threads=2 / sliced_threads=0 / nr=0 / decimate=1 / interlaced=0 / bluray_compat=0 / constrained_intra=0 / bframes=3 / b_pyramid=2 / b_adapt=1 / b_bias=0 / direct=1 / weightb=1 / open_gop=0 / weightp=2 / keyint=240 / keyint_min=23 / scenecut=40 / intra_refresh=0 / rc_lookahead=40 / rc=2pass / mbtree=1 / bitrate=2399 / ratetol=1.0 / qcomp=0.60 / qpmin=0 / qpmax=69 / qpstep=4 / cplxblur=20.0 / qblur=0.5 / ip_ratio=1.40 / aq=1:1.00
Default : Yes
Forced : No

Audio #1
ID : 2
Format : AC-3
Format/Info : Audio Coding 3
Mode extension : CM (complete main)
Format settings, Endianness : Big
Codec ID : A_AC3
Duration : 1 h 45 min
Bit rate mode : Constant
Bit rate : 192 kb/s
Channel(s) : 2 channels
Channel positions : Front: L R
Sampling rate : 48.0 kHz
Frame rate : 31.250 FPS (1536 spf)
Compression mode : Lossy
Stream size : 145 MiB (6%)
Title : amc
Language : Ukrainian
Default : Yes
Forced : Yes

Audio #2
ID : 3
Format : AC-3
Format/Info : Audio Coding 3
Mode extension : CM (complete main)
Format settings, Endianness : Big
Codec ID : A_AC3
Duration : 1 h 46 min
Bit rate mode : Constant
Bit rate : 192 kb/s
Channel(s) : 2 channels
Channel positions : Front: L R
Sampling rate : 48.0 kHz
Frame rate : 31.250 FPS (1536 spf)
Compression mode : Lossy
Stream size : 146 MiB (6%)
Title : КІНО
Language : Ukrainian
Default : No
Forced : No

Audio #3
ID : 4
Format : AC-3
Format/Info : Audio Coding 3
Mode extension : CM (complete main)
Format settings, Endianness : Big
Codec ID : A_AC3
Duration : 1 h 46 min
Bit rate mode : Constant
Bit rate : 192 kb/s
Channel(s) : 2 channels
Channel positions : Front: L R
Sampling rate : 48.0 kHz
Frame rate : 31.250 FPS (1536 spf)
Compression mode : Lossy
Stream size : 146 MiB (6%)
Language : English
Default : No
Forced : No

Text
ID : 5
Format : UTF-8
Codec ID : S_TEXT/UTF8
Codec ID/Info : UTF-8 Plain Text
Duration : 1 h 45 min
Bit rate : 69 b/s
Count of elements : 1366
Stream size : 53.5 KiB (0%)
Language : English
Default : Yes
Forced : No
Джерело:
За постер та другу доріжку дякую п. JACKUS, Hulk1987
За запис з amc дякую пану Sando7
Особиста оцінка: Кіану - класний актор


Срібний реліз (на рейтинг впливає 50% завантаженого)
 Трекер:    Зареєстрований   

Завантажити / скачати фільм українською



відео для новачків



 Зареєстрований:   2020-07-25 16:14
 Розмір:   2.21 GB 
 Оцінка фільму:   4.5/10 (Голосів: 24)
   
Інші релізи
   Хардбол / Hard Ball (2001) 1080p 2xUkr/Eng | Sub Eng drop_plz  4 / 0   11.43 GB   2018-08-23 19:56 
bassoneb 
Свій


З нами з: 12.11.13
Востаннє: 11.08.20
Повідомлень: 105

2016-10-15 17:32  
Хороший, добрий фільм!
volodymyr_sav 
VIP


З нами з: 07.10.13
Востаннє: 10.08.20
Повідомлень: 1755

2016-10-20 09:11  
bassoneb написано:
Хороший, добрий фільм!
Як і сотні інших подібних, про усі америцькі види спорту. Бо я точно бачив про сокер, баскетбол та регбі
Arsenfpu 
Відео Гуртом - фільмокрай
Відео Гуртом - фільмокрай


З нами з: 30.04.09
Востаннє: 12.08.20
Повідомлень: 7139

2020-07-25 16:16  
Реліз оновлено!
Змінено відео з на AVC

Ваш часовий пояс: GMT + 2 Години

Нова тема   Відповісти