Тартак | Дискографія [9 альбомів + 1 Maxi] (2001-2010) [APE/] | Hip-Hop/Alternative

Нові коментарі

Нова тема   Відповісти
Сторінка:  1, 2  наступна
Автор Повідомлення
plyrvt 
VIP


З нами з: 04.12.08
Востаннє: 22.07.19
Повідомлень: 400

2009-10-01 14:22  
Тартак | Дискографія [9 альбомів + 1 Maxi] (2001-2010) [APE/] | Hip-Hop/Alternative



Стиль: Alternative, Hip-Hop
Країна, місто: Україна, Луцьк-Київ
Сайти: Офіційний сайт
Виконавці:
Сашко Положинський
Віталій Павлишин
Андрій Благун
Едуард Косорапов
Дмитро Чуєв
Антон Єгоров
Альбоми:
2001 - Демо графічний вибух


01 - DJ ВОВОчка - 4:23
02 - Ну, Пострибай - 3:44
03 - Божевільні Танці - 2001 - 3:13
04 - 100%-ний Плагіат - 4:00
05 - Did Uhim - 3:33
06 - Подаруй Мені Кохання... - 4:04
07 - Кожнетіло - 3:57
08 - Купуйте Українське! - 3:35
09 - Зимаматимачеха - 3:32
10 - Хай Мене ХАй - 3:45
11 - О-Ля-Ля - 3:07
12 - Буча-Чака - 17:02

Тривалість: 00:57:55
Видавець: Воля Музика
EAC Log
Exact Audio Copy V0.99 prebeta 4 from 23. January 2008

Звіт EAC про видобування, котре виконане 21. червня 2008, 15:07

Тартак / Демо_графічний_вибух

Дисковод: _NEC CDRW/DVD CB1100A Adapter: 0 ID: 1

Режим читання : Точний
Використати точний потік : Так
Вимкнути аудіо кеш : Так
Застосувати мітки C2 : Ні

Корекція зміщення при читанні : 6
Екстрачитання областей Lead-in і Lead-out : Так
Заповнення пропущених семплів тишею : Так
Видалення блоків з тишею на початку і кінці : Ні
При вирахуванні CRC використовувались нульові семпли : Так
Використаний інтерфейс : 'Рідний' Win32-інтерфейс для Win NT/2000

Застосований вихідний формат : Кодер Користувача
Обраний бітрейт : 1024 kBit/s
Якість : Високий
Додати тег ID3 : Так
Компресор командного рядка : D:\Download\Muzika\EAC\bin\.exe
Додаткові параметри командного рядка : -V -8 -T "artist=%a" -T "title=%t" -T "album=%g" -T "date=%y" -T "tracknumber=%n" -T "genre=%m" %s
Використати зміщення при компресії : 594

TOC видобутого CD

Трек | Старт | Довжина | Початковий сектор | Кінцевий сектор
------------------------------------------------------------------
1 | 0:00.00 | 4:23.16 | 0 | 19740
2 | 4:23.16 | 3:44.31 | 19741 | 36571
3 | 8:07.47 | 3:12.47 | 36572 | 51018
4 | 11:20.19 | 4:00.32 | 51019 | 69050
5 | 15:20.51 | 3:32.41 | 69051 | 84991
6 | 18:53.17 | 4:03.43 | 84992 | 103259
7 | 22:56.60 | 3:57.10 | 103260 | 121044
8 | 26:53.70 | 3:34.42 | 121045 | 137136
9 | 30:28.37 | 3:32.14 | 137137 | 153050
10 | 34:00.51 | 3:44.68 | 153051 | 169918
11 | 37:45.44 | 3:07.16 | 169919 | 183959
12 | 40:52.60 | 17:02.04 | 183960 | 260613

Статус діапазону і помилки

Обраний діапазон

Ім'я файлу D:\Download\Muzika\EAC\Tartak - Demo_grafichniy_vibuh\Тартак - Демо_графічний_вибух.wav

Підозріла позиція 0:57:54

Піковий рівень 96.6 %
Якість діапазону 99.9 %
CRC тесту 9B115FFE
CRC копії 9B115FFE
Копіювання довершене

Були помилки

Кінець звіту
Audiochecker Log
AUDIOCHECKER v2.0 beta (build 457) - by Dester - [email protected]
~~~~~~~~~~~~~~~~~~~~~~~~~~~~~~~~~~
-=== НЕ РЕДАКТИРУЙТЕ ЭТОТ ФАЙЛ! ===-

Путь: ...\2001 - Демо_графічний_вибух

01 -=- 01 - DJ ВОВОчка.wav -=- CDDA (99%)
02 -=- 02 - Ну, Пострибай.wav -=- CDDA (100%)
03 -=- 03 - Божевільні Танці - 2001.wav -=- CDDA (99%)
04 -=- 04 - 100%-ний Плагіат.wav -=- CDDA (100%)
05 -=- 05 - Did Uhim.wav -=- CDDA (100%)
06 -=- 06 - Подаруй Мені Кохання.wav -=- CDDA (100%)
07 -=- 07 - Кожнетіло.wav -=- CDDA (100%)
08 -=- 08 - Купуйте Українське!.wav -=- CDDA (100%)
09 -=- 09 - Зимаматимачеха.wav -=- CDDA (100%)
10 -=- 10 - Хай Мене ХАй.wav -=- CDDA (100%)
11 -=- 11 - О-Ля-Ля.wav -=- CDDA (100%)
12 -=- 12 - Буча-Чака.wav -=- CDDA (100%)

Сводка 99,83% CDDA

83271364
2003 - Система Нервiв


01 - Ні, Я Не Ту Кохав (Дует Світязь) - 3:38
02 - Мікроff/onнa Перевірка (Роллікс) - 4:19
03 - Байдики Бити (Лос Динамос) - 3:42
04 - Не Забувай Вертатись (Де Шифер) - 4:01
05 - Півники (Інна Укра) - 4:10
06 - Вогник (Бангі Хеп) - 4:13
07 - Розтрусіть Свої Сідниці (Спідвей) - 4:12
08 - Вродливе М'ясо (Фактично Самі) - 4:01
09 - Но Пасаран! (Татата) - 3:32
10 - Репетиція (Основний Показник) - 3:48
11 - Зима Хвора (Мотор'ролла) - 5:03
12 - На Даху (Графіт) - 3:39
13 - Не Убий (Сірик) - 3:07
14 - Сонце (Sбей Пепел's) - 3:12
15 - Джамайка (Флайzzza) - 4:16
16 - Понад Хмарами...(Катя Chilly) - 4:26
17 - Червона Рута-97 (Васік) - 14:17

Тривалість: 01:17:37
Видавець: Astra records 2005
EAC Log
Exact Audio Copy V0.99 prebeta 4 from 23. January 2008

Отчёт EAC об извлечении, выполненном 9. августа 2009, 17:41

Тартак Та Друзi / Система Нервiв

Дисковод: Optiarc DVD RW AD-7170A Adapter: 0 ID: 0

Режим чтения : Достоверность
Использование точного потока : Да
Отключение кэша аудио : Да
Использование указателей C2 : Нет

Коррекция смещения при чтении : 48
Способность читать области Lead-in и Lead-out : Нет
Заполнение пропущенных сэмплов тишиной : Да
Удаление блоков с тишиной в начале и конце : Нет
При вычислениях CRC использовались нулевые сэмплы : Нет
Интерфейс : Встроенный Win32-интерфейс для Win NT/2000

Выходной формат : Внутренние WAV-операции
Формат сэмплов : 44.100 Гц; 16 бит; стерео

TOC извлечённого CD

Трек | Старт | Длительность | Начальный сектор | Конечный сектор
---------------------------------------------------------------------
1 | 0:00.00 | 3:38.37 | 0 | 16386
2 | 3:38.37 | 4:19.26 | 16387 | 35837
3 | 7:57.63 | 3:41.53 | 35838 | 52465
4 | 11:39.41 | 4:00.61 | 52466 | 70526
5 | 15:40.27 | 4:10.19 | 70527 | 89295
6 | 19:50.46 | 4:12.44 | 89296 | 108239
7 | 24:03.15 | 4:11.73 | 108240 | 127137
8 | 28:15.13 | 4:00.56 | 127138 | 145193
9 | 32:15.69 | 3:32.05 | 145194 | 161098
10 | 35:47.74 | 3:47.73 | 161099 | 178196
11 | 39:35.72 | 5:03.18 | 178197 | 200939
12 | 44:39.15 | 3:39.30 | 200940 | 217394
13 | 48:18.45 | 3:07.33 | 217395 | 231452
14 | 51:26.03 | 3:11.66 | 231453 | 245843
15 | 54:37.69 | 4:15.74 | 245844 | 265042
16 | 58:53.68 | 4:26.11 | 265043 | 285003
17 | 63:20.04 | 14:16.72 | 285004 | 349275

Характеристики диапазона извлечения и сообщения об ошибках

Выбранный диапазон

Имя файла G:\Music\Rock\Наше\Тартак\Тартак Та Друзи - Система Нервів (+cue)\Тартак Та Друзi - Система Нервiв.wav

Пиковый уровень 100.0 %
Качество диапазона 99.9 %
CRC копии 8430F68E
Копирование... OK

Ошибок не произошло

AccurateRip: сводка

Трек 1 нет в базе данных
Трек 2 нет в базе данных
Трек 3 нет в базе данных
Трек 4 нет в базе данных
Трек 5 нет в базе данных
Трек 6 нет в базе данных
Трек 7 нет в базе данных
Трек 8 нет в базе данных
Трек 9 нет в базе данных
Трек 10 нет в базе данных
Трек 11 нет в базе данных
Трек 12 нет в базе данных
Трек 13 нет в базе данных
Трек 14 нет в базе данных
Трек 15 нет в базе данных
Трек 16 нет в базе данных
Трек 17 нет в базе данных

Ни одного трека нет в базе AccurateRip

Конец отчёта
Audiochecker Log
AUDIOCHECKER v2.0 beta (build 457) - by Dester - [email protected]
~~~~~~~~~~~~~~~~~~~~~~~~~~~~~~~~~~
-=== НЕ РЕДАКТИРУЙТЕ ЭТОТ ФАЙЛ! ===-

Путь: ...\2005 - Система Нервiв

01 -=- 01 - Ні, Я Не Ту Кохав (Дует Світязь).wav -=- CDDA (100%)
02 -=- 02 - Мікроff_onнa Перевірка (Роллікс).wav -=- CDDA (100%)
03 -=- 03 - Байдики Бити (Лос Динамос).wav -=- CDDA (100%)
04 -=- 04 - Не Забувай Вертатись (Де Шифер).wav -=- CDDA (100%)
05 -=- 05 - Півники (Інна Укра).wav -=- CDDA (100%)
06 -=- 06 - Вогник (Бангі Хеп).wav -=- CDDA (100%)
07 -=- 07 - Розтрусіть Свої Сідниці (Спідвей).wav -=- CDDA (100%)
08 -=- 08 - Вродливе М'ясо (Фактично Самі).wav -=- CDDA (100%)
09 -=- 09 - Но Пасаран! (Татата).wav -=- CDDA (99%)
10 -=- 10 - Репетиція (Основний Показник).wav -=- CDDA (100%)
11 -=- 11 - Зима Хвора (Мотор'ролла).wav -=- CDDA (100%)
12 -=- 12 - На Даху (Графіт).wav -=- CDDA (100%)
13 -=- 13 - Не Убий (Сірик).wav -=- CDDA (100%)
14 -=- 14 - Сонце (Sбей Пепел's).wav -=- CDDA (100%)
15 -=- 15 - Джамайка (Флайzzza).wav -=- CDDA (100%)
16 -=- 16 - Понад Хмарами...(Катя Chilly).wav -=- CDDA (100%)
17 -=- 17 - Червона Рута-97 (Васік).wav -=- CDDA (100%)

Сводка 99,94% CDDA

230318532
2004 - Музичний лист щастя


01 - Мила - 3:25
02 - Дівчата - 3:36
03 - Борода Руда - 3:25
04 - НашеЛіто - 4:10
05 - Моя Любов, Моя Ненависть - 4:20
06 - Лайливе Слово - 4:19
07 - Інді Я - 3:29
08 - Весело! - 3:21
09 - Комп'ютерні Тигри - 4:06
10 - Щось - 3:48
11 - Стільникове Кохання - 4:11
12 - Іди Тусуйся! - 4:11
13 - Це Ваше Свято - 4:03
14 - Хулігани - 2:31
15 - Я Не Хочу - 4:14
16 - Поцiлуй (bonus) - 3:18

Тривалість: 01:00:27
Видавець: Astra records
EAC Log
Exact Audio Copy V0.99 prebeta 4 from 23. January 2008

EAC extraction logfile from 2. July 2008, 14:10

Tartak / Muzychnyj Lyst Shchastya

Used drive : ASUS DRW-1608P2S Adapter: 0 ID: 0

Read mode : Secure
Utilize accurate stream : Yes
Defeat audio cache : Yes
Make use of C2 pointers : No

Read offset correction : 48
Overread into Lead-In and Lead-Out : No
Fill up missing offset samples with silence : Yes
Delete leading and trailing silent blocks : No
Null samples used in CRC calculations : Yes
Used interface : Installed external ASPI interface

Used output format : Internal WAV Routines
Sample format : 44.100 Hz; 16 Bit; Stereo

TOC of the extracted CD

Track | Start | Length | Start sector | End sector
---------------------------------------------------------
1 | 0:00.00 | 3:24.56 | 0 | 15355
2 | 3:24.56 | 3:35.40 | 15356 | 31520
3 | 7:00.21 | 3:24.67 | 31521 | 46887
4 | 10:25.13 | 4:10.03 | 46888 | 65640
5 | 14:35.16 | 4:20.33 | 65641 | 85173
6 | 18:55.49 | 4:19.11 | 85174 | 104609
7 | 23:14.60 | 3:29.30 | 104610 | 120314
8 | 26:44.15 | 3:20.68 | 120315 | 135382
9 | 30:05.08 | 4:06.13 | 135383 | 153845
10 | 34:11.21 | 3:48.05 | 153846 | 170950
11 | 37:59.26 | 4:10.43 | 170951 | 189743
12 | 42:09.69 | 4:10.72 | 189744 | 208565
13 | 46:20.66 | 4:02.49 | 208566 | 226764
14 | 50:23.40 | 2:31.22 | 226765 | 238111
15 | 52:54.62 | 4:14.36 | 238112 | 257197
16 | 57:09.23 | 3:17.71 | 257198 | 272043
17 | 62:59.19 | 7:47.28 | 283444 | 318496

Range status and errors

Selected range

Filename D:\CDImage.wav

Peak level 100.0 %
Range quality 100.0 %
Copy CRC 630EE1F9
Copy OK

No errors occurred

End of status report
Audiochecker Log
AUDIOCHECKER v2.0 beta (build 457) - by Dester - [email protected]
~~~~~~~~~~~~~~~~~~~~~~~~~~~~~~~~~~
-=== НЕ РЕДАКТИРУЙТЕ ЭТОТ ФАЙЛ! ===-

Путь: ...\2004 - Музичний лист щастя

01 -=- 01 - Мила.wav -=- CDDA (100%)
02 -=- 02 - Дівчата.wav -=- CDDA (100%)
03 -=- 03 - Борода Руда.wav -=- CDDA (100%)
04 -=- 04 - НашеЛіто.wav -=- CDDA (100%)
05 -=- 05 - Моя Любов, Моя Ненависть.wav -=- CDDA (100%)
06 -=- 06 - Лайливе Слово.wav -=- CDDA (100%)
07 -=- 07 - Інді Я.wav -=- CDDA (100%)
08 -=- 08 - Весело!.wav -=- CDDA (99%)
09 -=- 09 - Комп'ютерні Тигри.wav -=- CDDA (100%)
10 -=- 10 - Щось.wav -=- CDDA (100%)
11 -=- 11 - Стільникове Кохання.wav -=- CDDA (100%)
12 -=- 12 - Іди Тусуйся!.wav -=- CDDA (100%)
13 -=- 13 - Це Ваше Свято.wav -=- CDDA (100%)
14 -=- 14 - Хулігани.wav -=- CDDA (100%)
15 -=- 15 - Я Не Хочу.wav -=- CDDA (100%)
16 -=- 16 - Поцiлуй (bonus).wav -=- CDDA (100%)

Сводка 99,94% CDDA

133103028
2005 - 1й Комерційний


01 - Kupujte Nashe! Shura Molotov 20 rmx - 4:41
02 - Bu-2Cha-Ka tka4_euroremont_overtime - 5:28
03 - SlovoBL tsl^bit8beat.com - 4:14
04 - Tak Prosto Nenza mix - 4:00
05 - Kazaty Katja NASR_rmx - 3:10
06 - Everybody Shura Molotov 20 rmx - 5:57
07 - Sontse Peche Mein Phunk FaSSung - 4:24
08 - Ja Hochu Andrij Frantsuz rmx - 4:16
09 - Idy Ty Sujsja Alexander Slootsky - 4:21
10 - Zhu Jemene Zhu Rba Aby_MC_Kofein_rmx - 3:33
11 - Sontse Kydaje Zgory FDRmx - 4:23
12 - DanZesYoY tsl^bit8beat.com - 4:27
13 - Mama Ljubyt` Tata Wet Dream`n`Bass FS RMX - 4:46
14 - SMS (Mio Corazon Version) Aby_MC_Kofein_rmx - 3:57
15 - BoRoDaRuDa NASR_rmx - 3:58
16 - Jak Uzhe Nabrudlo Alexander Slootsky - 5:02
17 - Ljubov Ukrala Nich Aby_MC_Kofein_rmx - 3:23

Тривалість: 01:14:01
Видавець: Astra records
EAC Log
Exact Audio Copy V0.99 prebeta 4 from 23. January 2008

EAC extraction logfile from 5. January 2009, 0:56

Тартак / 1й Комерційний

Used drive : TEAC CD-W540E Adapter: 1 ID: 0

Read mode : Secure
Utilize accurate stream : Yes
Defeat audio cache : Yes
Make use of C2 pointers : No

Read offset correction : 686
Overread into Lead-In and Lead-Out : No
Fill up missing offset samples with silence : Yes
Delete leading and trailing silent blocks : No
Null samples used in CRC calculations : Yes
Used interface : Installed external ASPI interface

Used output format : Internal WAV Routines
Sample format : 44.100 Hz; 16 Bit; Stereo

TOC of the extracted CD

Track | Start | Length | Start sector | End sector
---------------------------------------------------------
1 | 0:00.00 | 4:40.60 | 0 | 21059
2 | 4:40.60 | 5:27.54 | 21060 | 45638
3 | 10:08.39 | 4:13.44 | 45639 | 64657
4 | 14:22.08 | 3:59.58 | 64658 | 82640
5 | 18:21.66 | 3:10.36 | 82641 | 96926
6 | 21:32.27 | 5:57.16 | 96927 | 123717
7 | 27:29.43 | 4:23.65 | 123718 | 143507
8 | 31:53.33 | 4:15.59 | 143508 | 162691
9 | 36:09.17 | 4:21.36 | 162692 | 182302
10 | 40:30.53 | 3:33.33 | 182303 | 198310
11 | 44:04.11 | 4:23.00 | 198311 | 218035
12 | 48:27.11 | 4:27.25 | 218036 | 238085
13 | 52:54.36 | 4:46.35 | 238086 | 259570
14 | 57:40.71 | 3:56.53 | 259571 | 277323
15 | 61:37.49 | 3:58.02 | 277324 | 295175
16 | 65:35.51 | 5:01.69 | 295176 | 317819
17 | 70:37.45 | 3:22.69 | 317820 | 333038

Range status and errors

Selected range

Filename E:\Torrent\Тартак -2005- 1й Комерційний\Тартак - 1й Комерційний.wav

Peak level 98.8 %
Range quality 100.0 %
Copy CRC 1AA9204A
Copy OK

No errors occurred

End of status report
Audiochecker Log
AUDIOCHECKER v2.0 beta (build 457) - by Dester - [email protected]
~~~~~~~~~~~~~~~~~~~~~~~~~~~~~~~~~~
-=== НЕ РЕДАКТИРУЙТЕ ЭТОТ ФАЙЛ! ===-

Путь: ...\2005 - 1й Комерційний

01 -=- 01 - Kupujte Nashe! Shura Molotov 20 rmx.wav -=- CDDA (100%)
02 -=- 02 - Bu-2Cha-Ka tka4_euroremont_overtime.wav -=- CDDA (100%)
03 -=- 03 - SlovoBL tsl^bit8beat.com.wav -=- CDDA (99%)
04 -=- 04 - Tak Prosto Nenza mix.wav -=- CDDA (100%)
05 -=- 05 - Kazaty Katja NASR_rmx.wav -=- CDDA (100%)
06 -=- 06 - Everybody Shura Molotov 20 rmx.wav -=- CDDA (100%)
07 -=- 07 - Sontse Peche Mein Phunk FaSSung.wav -=- CDDA (100%)
08 -=- 08 - Ja Hochu Andrij Frantsuz rmx.wav -=- CDDA (100%)
09 -=- 09 - Idy Ty Sujsja Alexander Slootsky.wav -=- CDDA (100%)
10 -=- 10 - Zhu Jemene Zhu Rba Aby_MC_Kofein_rmx.wav -=- CDDA (100%)
11 -=- 11 - Sontse Kydaje Zgory FDRmx.wav -=- CDDA (100%)
12 -=- 12 - DanZesYoY tsl^bit8beat.com.wav -=- CDDA (100%)
13 -=- 13 - Mama Ljubyt` Tata Wet Dream`n`Bass FS RMX.wav -=- CDDA (100%)
14 -=- 14 - SMS (Mio Corazon Version) Aby_MC_Kofein_rmx.wav -=- CDDA (100%)
15 -=- 15 - BoRoDaRuDa NASR_rmx.wav -=- CDDA (100%)
16 -=- 16 - Jak Uzhe Nabrudlo Alexander Slootsky.wav -=- CDDA (100%)
17 -=- 17 - Ljubov Ukrala Nich Aby_MC_Kofein_rmx.wav -=- CDDA (100%)

Сводка 99,94% CDDA

220146164
2005 - Гуляйгород


01 - Ой Нема Того - 3:43
02 - Чорноморець - 4:13
03 - Рясна-Красна - 3:37
04 - Туман Яром - 3:46
05 - Приспівки - 3:30
06 - Ой Учора В Куми - 3:29
07 - Василиха - 3:16
08 - Калина-Малина - 4:44
09 - Сядай, Сядай - 3:59
10 - Тиха-Тиха - 5:13
11 - Та Нема Гірш Нікому - 3:25
12 - Мій Народ - 3:53

Тривалість: 00:46:48
Видавець: Astra records
EAC Log
Exact Audio Copy V0.99 prebeta 4 from 23. January 2008

EAC extraction logfile from 1. July 2008, 19:02

Tartak / Gulayhorod

Used drive : ASUS DRW-1608P2S Adapter: 0 ID: 0

Read mode : Secure
Utilize accurate stream : Yes
Defeat audio cache : Yes
Make use of C2 pointers : No

Read offset correction : 48
Overread into Lead-In and Lead-Out : No
Fill up missing offset samples with silence : Yes
Delete leading and trailing silent blocks : No
Null samples used in CRC calculations : Yes
Used interface : Installed external ASPI interface

Used output format : Internal WAV Routines
Sample format : 44.100 Hz; 16 Bit; Stereo

TOC of the extracted CD

Track | Start | Length | Start sector | End sector
---------------------------------------------------------
1 | 0:00.00 | 3:42.67 | 0 | 16716
2 | 3:42.67 | 4:12.73 | 16717 | 35689
3 | 7:55.65 | 3:37.27 | 35690 | 51991
4 | 11:33.17 | 3:45.51 | 51992 | 68917
5 | 15:18.68 | 3:29.39 | 68918 | 84631
6 | 18:48.32 | 3:29.34 | 84632 | 100340
7 | 22:17.66 | 3:15.70 | 100341 | 115035
8 | 25:33.61 | 4:43.64 | 115036 | 136324
9 | 30:17.50 | 3:58.64 | 136325 | 154238
10 | 34:16.39 | 5:12.51 | 154239 | 177689
11 | 39:29.15 | 3:25.26 | 177690 | 193090
12 | 42:54.41 | 3:53.19 | 193091 | 210584

Range status and errors

Selected range

Filename D:\CDImage.wav

Peak level 98.8 %
Range quality 99.9 %
Copy CRC F7577AA1
Copy OK

No errors occurred

End of status report
Audiochecker Log
AUDIOCHECKER v2.0 beta (build 457) - by Dester - [email protected]
~~~~~~~~~~~~~~~~~~~~~~~~~~~~~~~~~~
-=== НЕ РЕДАКТИРУЙТЕ ЭТОТ ФАЙЛ! ===-

Путь: ...\2005 - Гуляйгород

01 -=- 01 - Ой Нема Того.wav -=- CDDA (100%)
02 -=- 02 - Чорноморець.wav -=- CDDA (100%)
03 -=- 03 - Рясна-Красна.wav -=- CDDA (100%)
04 -=- 04 - Туман Яром.wav -=- CDDA (100%)
05 -=- 05 - Приспівки.wav -=- CDDA (100%)
06 -=- 06 - Ой Учора В Куми.wav -=- CDDA (100%)
07 -=- 07 - Василиха.wav -=- CDDA (100%)
08 -=- 08 - Калина-Малина.wav -=- CDDA (99%)
09 -=- 09 - Сядай, Сядай.wav -=- CDDA (100%)
10 -=- 10 - Тиха-Тиха.wav -=- CDDA (100%)
11 -=- 11 - Та Нема Гірш Нікому.wav -=- CDDA (100%)
12 -=- 12 - Мій Народ.wav -=- CDDA (100%)

Сводка 99,92% CDDA

131561396
2006 - Закліпані Пісні, Або Бачили Очі Що Купували


01 - О-ля-ля - 3:07
02 - Кожне тіло - 3:57
03 - 100%-ий плагіат - 4:00
04 - Буча-чака - 4:48
05 - Божевільні танці – 2001 - 3:11
06 - Мікрoff/onна перевірка - 4:19
07 - Понад хмарами - 4:26
08 - Ні, я не ту кохав - 3:39
09 - Хулігани - 2:32
10 - Наше літо - 4:11
11 - Весело! - 3:21
12 - Стільникове кохання - 4:12
13 - Я не хочу - 4:15
14 - Чорноморець (драйвова лірична) - 4:14
15 - Ой, Учора В Куми (сніжна жартівлива) - 3:29
16 - Ой, Учора В Куми (KofeinStudio Version) - 3:27

Тривалість: 01:01:09
Видавець: Moon records
EAC Log
Отчёт EAC об извлечении, выполненном 15. мая 2008, 19:29 для диска:
Тартак / Закліпані Пісні, Або Бачили Очі Що Купували

Дисковод: TSSTcorpCD/DVDW SH-W162C Adapter: 2 ID: 2
Режим чтения: Достоверный (C2: нет, Точный поток: да, Отключение кэша: да)
Коррекция смещения при чтении: 6
Способность читать области Lead-in и Lead-out : Нет

Выходной формат: Внутренние WAV-операции
44.100 Гц; 16 бит; стерео

Другие параметры:
Заполнение пропущенных сэмплов тишиной : Да
Удаление блоков с тишиной в начале и конце : Нет
Установленный внешний ASPI-интерфейс

Характеристики диапазона извлечения и сообщения об ошибках
Выбранный диапазон
Имя файла E:\Мои Документы\Тартак - Закліпані Пісні, Або Бачили Очі Що Купували.wav

Пиковый уровень 98.8 %
Качество диапазона 100.0 %
CRC 29E8F543
Копирование... OK

Ошибок не произошло

Конец отчёта
Audiochecker Log
AUDIOCHECKER v2.0 beta (build 457) - by Dester - [email protected]
~~~~~~~~~~~~~~~~~~~~~~~~~~~~~~~~~~
-=== НЕ РЕДАКТИРУЙТЕ ЭТОТ ФАЙЛ! ===-

Путь: ...\2006 - Закліпані Пісні, Або Бачили Очі Що Купували

01 -=- 01 - О-ля-ля.wav -=- CDDA (100%)
02 -=- 02 - Кожне тіло.wav -=- CDDA (100%)
03 -=- 03 - 100%-ий плагіат.wav -=- CDDA (99%)
04 -=- 04 - Буча-чака.wav -=- CDDA (100%)
05 -=- 05 - Божевільні танці – 2001.wav -=- CDDA (99%)
06 -=- 06 - Мікрoff_onна перевірка.wav -=- CDDA (100%)
07 -=- 07 - Понад хмарами.wav -=- CDDA (100%)
08 -=- 08 - Ні, я не ту кохав.wav -=- CDDA (100%)
09 -=- 09 - Хулігани.wav -=- CDDA (100%)
10 -=- 10 - Наше літо.wav -=- CDDA (100%)
11 -=- 11 - Весело!.wav -=- CDDA (100%)
12 -=- 12 - Стільникове кохання.wav -=- CDDA (99%)
13 -=- 13 - Я не хочу.wav -=- CDDA (100%)
14 -=- 14 - Чорноморець (драйвова лірична).wav -=- CDDA (100%)
15 -=- 15 - Ой, Учора В Куми (сніжна жартівлива).wav -=- CDDA (100%)
16 -=- 16 - Ой, Учора В Куми (KofeinStudio Version).wav -=- CDDA (100%)

Сводка 99,81% CDDA

195024980
2006 - Сльози Та Соплі


01 - Помирає твоя любов - 4:27
02 - Без тебе - 3:02
03 - Iнглiш сонг - 3:11
04 - Омана - 3:42
05 - Я не знаю - 3:25
06 - Не варта - 3:08
07 - Кулiнарiя - 3:18
08 - Вечiр осiннiй - 3:01
09 - Дай себе - 3:46
10 - Ти дуже гарна... - 4:23
11 - Прощай кохання - 3:48
12 - Поп корн - 3:14
13 - Воно - 4:10
14 - Менi все одно - 3:00
15 - Забуватиму тебе повiльно - 4:11

Тривалість: 00:53:47
Видавець: Astra records
EAC Log
Exact Audio Copy V0.99 prebeta 4 from 23. January 2008

Звіт EAC про видобування, котре виконане 11. січня 2009, 19:58

Тартак / Сльози Та Соплі

Дисковод: _NEC DVD_RW ND-2510A Adapter: 1 ID: 0

Режим читання : Точний
Використати точний потік : Так
Вимкнути аудіо кеш : Так
Застосувати мітки C2 : Ні

Корекція зміщення при читанні : 48
Екстрачитання областей Lead-in і Lead-out : Ні
Заповнення пропущених семплів тишею : Так
Видалення блоків з тишею на початку і кінці : Ні
При вирахуванні CRC використовувались нульові семпли : Так
Використаний інтерфейс : 'Рідний' Win32-інтерфейс для Win NT/2000

Застосований вихідний формат : Внутрішні WAV-операції
Формат семпла : 44.100 Гц; 16 біт; стерео

TOC видобутого CD

Трек | Старт | Довжина | Початковий сектор | Кінцевий сектор
------------------------------------------------------------------
1 | 0:00.00 | 4:27.11 | 0 | 20035
2 | 4:27.11 | 3:01.57 | 20036 | 33667
3 | 7:28.68 | 3:11.11 | 33668 | 48003
4 | 10:40.04 | 3:42.11 | 48004 | 64664
5 | 14:22.15 | 3:25.19 | 64665 | 80058
6 | 17:47.34 | 3:08.36 | 80059 | 94194
7 | 20:55.70 | 3:18.13 | 94195 | 109057
8 | 24:14.08 | 3:01.02 | 109058 | 122634
9 | 27:15.10 | 3:46.24 | 122635 | 139608
10 | 31:01.34 | 4:22.55 | 139609 | 159313
11 | 35:24.14 | 3:47.44 | 159314 | 176382
12 | 39:11.58 | 3:14.31 | 176383 | 190963
13 | 42:26.14 | 4:09.67 | 190964 | 209705
14 | 46:36.06 | 3:00.23 | 209706 | 223228
15 | 49:36.29 | 4:10.61 | 223229 | 242039

Статус діапазону і помилки

Обраний діапазон

Ім'я файлу M:\Тартак - Сльози Та Соплі.wav

Піковий рівень 97.7 %
Якість діапазону 99.7 %
CRC копії 0E336112
Копіювання... OK

Помилки не траплялися

Кінець звіту
Audiochecker Log
AUDIOCHECKER v2.0 beta (build 457) - by Dester - [email protected]
~~~~~~~~~~~~~~~~~~~~~~~~~~~~~~~~~~
-=== НЕ РЕДАКТИРУЙТЕ ЭТОТ ФАЙЛ! ===-

Путь: ...\2006 - Сльози Та Соплі

01 -=- 01 - Помирає твоя любов.wav -=- CDDA (99%)
02 -=- 02 - Без тебе.wav -=- CDDA (100%)
03 -=- 03 - Iнглiш сонг.wav -=- CDDA (100%)
04 -=- 04 - Омана.wav -=- CDDA (100%)
05 -=- 05 - Я не знаю.wav -=- CDDA (100%)
06 -=- 06 - Не варта.wav -=- CDDA (100%)
07 -=- 07 - Кулiнарiя.wav -=- CDDA (100%)
08 -=- 08 - Вечiр осiннiй.wav -=- CDDA (100%)
09 -=- 09 - Дай себе.wav -=- CDDA (100%)
10 -=- 10 - Ти дуже гарна.wav -=- CDDA (100%)
11 -=- 11 - Прощай кохання.wav -=- CDDA (100%)
12 -=- 12 - Поп корн.wav -=- CDDA (100%)
13 -=- 13 - Воно.wav -=- CDDA (100%)
14 -=- 14 - Менi все одно.wav -=- CDDA (100%)
15 -=- 15 - Забуватиму тебе повiльно.wav -=- CDDA (100%)

Сводка 99,93% CDDA

178165524
2006 - Україно, Забивай!


01 - Original Version - 3:06
02 - Radio Version - 3:16
03 - Sunrise Electro Dance Mix - 3:09
04 - FS E Sailor/Off Hyper Format Edit - 3:54
05 - Car_Party_Un_Kofein_Remix - 3:08
06 - Electrofunkyskapunky Mix - 3:04
07 - DUBble Guitar_East Mix - 3:22
08 - Buch'n'Bass Club Dance Mix - 3:51
09 - Karaoke Version - 3:11
10 - Zroby Sobi Sam Remix - 3:06

Тривалість: 00:33:07
Видавець: Moon records
Мова: українська
EAC Log
Exact Audio Copy V0.99 prebeta 5 from 4. May 2009

EAC extraction logfile from 19. October 2009, 12:08

Тартак / Україно, Забивай!

Used drive : HL-DT-STDVDRAM GSA-H10N Adapter: 0 ID: 1

Read mode : Secure
Utilize accurate stream : Yes
Defeat audio cache : Yes
Make use of C2 pointers : No

Read offset correction : 667
Overread into Lead-In and Lead-Out : No
Fill up missing offset samples with silence : Yes
Delete leading and trailing silent blocks : No
Null samples used in CRC calculations : No
Used interface : Native Win32 interface for Win NT & 2000

Used output format : Monkey's Audio Lossless Encoder v3.99 DLL
Sample format : High Lossless Compression

TOC of the extracted CD

Track | Start | Length | Start sector | End sector
---------------------------------------------------------
1 | 0:00.00 | 3:06.31 | 0 | 13980
2 | 3:06.31 | 3:15.60 | 13981 | 28665
3 | 6:22.16 | 3:08.68 | 28666 | 42833
4 | 9:31.09 | 3:54.37 | 42834 | 60420
5 | 13:25.46 | 3:08.28 | 60421 | 74548
6 | 16:33.74 | 3:04.12 | 74549 | 88360
7 | 19:38.11 | 3:22.32 | 88361 | 103542
8 | 23:00.43 | 3:50.59 | 103543 | 120851
9 | 26:51.27 | 3:10.44 | 120852 | 135145
10 | 30:01.71 | 3:06.02 | 135146 | 149097
11 | 35:39.73 | 16:32.34 | 160498 | 234931

Range status and errors

Selected range

Filename E:\Music3\Ukrainian\Т\Тартак\Singles\2006 - Україно, Забивай!\2006 - Україно, Забивай!.ape

Peak level 100.0 %
Range quality 100.0 %
Test CRC C2663EA6
Copy CRC C2663EA6
Copy OK

No errors occurred

AccurateRip summary

Track 1 not present in database
Track 2 not present in database
Track 3 not present in database
Track 4 not present in database
Track 5 not present in database
Track 6 not present in database
Track 7 not present in database
Track 8 not present in database
Track 9 not present in database
Track 10 not present in database

None of the tracks are present in the AccurateRip database

End of status report
Audiochecker Log
AUDIOCHECKER v2.0 beta (build 457) - by Dester - [email protected]
~~~~~~~~~~~~~~~~~~~~~~~~~~~~~~~~~~
-=== НЕ РЕДАКТИРУЙТЕ ЭТОТ ФАЙЛ! ===-

Путь: ...\2006 - Україно, Забивай!

01 -=- 01 - Original Version.wav -=- MPEG (95%)
02 -=- 02 - Radio Version.wav -=- MPEG (95%)
03 -=- 03 - Sunrise Electro Dance Mix.wav -=- CDDA (100%)
04 -=- 04 - FS E Sailor_Off Hyper Format Edit.wav -=- CDDA (100%)
05 -=- 05 - Car_Party_Un_Kofein_Remix.wav -=- CDDA (99%)
06 -=- 06 - Electrofunkyskapunky Mix.wav -=- CDDA (100%)
07 -=- 07 - DUBble Guitar_East Mix.wav -=- CDDA (100%)
08 -=- 08 - Buch'n'Bass Club Dance Mix.wav -=- CDDA (100%)
09 -=- 09 - Karaoke Version.wav -=- CDDA (100%)
10 -=- 10 - Zroby Sobi Sam Remix.wav -=- CDDA (99%)

Сводка 80,80% CDDA

189037444
Data CD

Якість:
кодек: Divx v5
розмір кадру: 720*400 (16:9)

Аудіо: мова: українська
кодек: MP3 48000Hz stereo
бітрейт: 160 кбіт/сек

Тартак-Україно забивай.avi (Тривалість: 00:03:13, бітрейт відео 1315 кбіт/сек)


Інтервью

7 треків в форматі WAV (стиснуті мною в APE) + Інтервью.doc
Tartak Int 01 - 0:58
Tartak Int 02 - 0:51
Tartak Int 03 - 0:38
Tartak Int 04 - 0:46
Tartak Int 05 - 0:49
Tartak Int 06 - 0:55
Tartak Int 07 - 1:11
Фото

F-1.jpg

F-2.JPG
2007 - Тартак та Гуляйгород - Kofein


01 - Ой Нема Того - 4:12
02 - Чорноморець - 4:44
03 - Рясна-Красна - 3:11
04 - Туман Яром - 3:45
05 - Приспівки - 3:15
06 - Ой Учора У Куми - 3:22
07 - Василиха - 4:03
08 - Калина-Малина - 5:03
09 - Сядай, Сядай - 3:24
10 - Тиха-Тиха - 4:48
11 - Та Нема Гірш Нікому - 3:37
12 - Мій Народ - 5:17
13 - Бонус - 4:25

Тривалість: 00:53:06
Видавець: "ТА МУЗИКА", "Студія Кофеїн", Астра Рекордс
EAC Log
Exact Audio Copy V0.99 prebeta 5 from 4. May 2009

EAC extraction logfile from 6. February 2010, 22:56

Тартак / Kofein

Used drive : _NEC DVD_RW ND-2510A Adapter: 1 ID: 0

Read mode : Secure
Utilize accurate stream : Yes
Defeat audio cache : Yes
Make use of C2 pointers : No

Read offset correction : 48
Overread into Lead-In and Lead-Out : No
Fill up missing offset samples with silence : Yes
Delete leading and trailing silent blocks : No
Null samples used in CRC calculations : Yes
Used interface : Native Win32 interface for Win NT & 2000

Used output format : User Defined Encoder
Selected bitrate : 128 kBit/s
Quality : High
Add ID3 tag : No
Command line compressor : C:\Program Files\\.exe
Additional command line options : -8 -V %s

TOC of the extracted CD

Track | Start | Length | Start sector | End sector
---------------------------------------------------------
1 | 0:00.00 | 4:12.19 | 0 | 18918
2 | 4:12.19 | 4:43.55 | 18919 | 40198
3 | 8:55.74 | 3:10.51 | 40199 | 54499
4 | 12:06.50 | 3:45.22 | 54500 | 71396
5 | 15:51.72 | 3:14.59 | 71397 | 86005
6 | 19:06.56 | 3:21.57 | 86006 | 101137
7 | 22:28.38 | 4:02.67 | 101138 | 119354
8 | 26:31.30 | 5:02.62 | 119355 | 142066
9 | 31:34.17 | 3:23.72 | 142067 | 157363
10 | 34:58.14 | 4:47.68 | 157364 | 178956
11 | 39:46.07 | 3:37.16 | 178957 | 195247
12 | 43:23.23 | 5:17.11 | 195248 | 219033
13 | 48:40.34 | 4:25.17 | 219034 | 238925

Range status and errors

Selected range

Filename C:\Users\Leha\Desktop\1\Kofein.wav

Peak level 97.8 %
Range quality 99.9 %
Test CRC 036F836B
Copy CRC 036F836B
Copy OK

No errors occurred

End of status report

------------------------------------------------------------

Exact Audio Copy V0.99 prebeta 5 from 4. May 2009

EAC extraction logfile from 6. February 2010, 22:57

Тартак / Kofein

Used drive : _NEC DVD_RW ND-2510A Adapter: 1 ID: 0

Read mode : Secure
Utilize accurate stream : Yes
Defeat audio cache : Yes
Make use of C2 pointers : No

Read offset correction : 48
Overread into Lead-In and Lead-Out : No
Fill up missing offset samples with silence : Yes
Delete leading and trailing silent blocks : No
Null samples used in CRC calculations : Yes
Used interface : Native Win32 interface for Win NT & 2000

Used output format : User Defined Encoder
Selected bitrate : 128 kBit/s
Quality : High
Add ID3 tag : No
Command line compressor : C:\Program Files\\.exe
Additional command line options : -8 -V %s

TOC of the extracted CD

Track | Start | Length | Start sector | End sector
---------------------------------------------------------
1 | 0:00.00 | 4:12.19 | 0 | 18918
2 | 4:12.19 | 4:43.55 | 18919 | 40198
3 | 8:55.74 | 3:10.51 | 40199 | 54499
4 | 12:06.50 | 3:45.22 | 54500 | 71396
5 | 15:51.72 | 3:14.59 | 71397 | 86005
6 | 19:06.56 | 3:21.57 | 86006 | 101137
7 | 22:28.38 | 4:02.67 | 101138 | 119354
8 | 26:31.30 | 5:02.62 | 119355 | 142066
9 | 31:34.17 | 3:23.72 | 142067 | 157363
10 | 34:58.14 | 4:47.68 | 157364 | 178956
11 | 39:46.07 | 3:37.16 | 178957 | 195247
12 | 43:23.23 | 5:17.11 | 195248 | 219033
13 | 48:40.34 | 4:25.17 | 219034 | 238925

Range status and errors

Selected range

Filename C:\Users\Leha\Desktop\1\Kofein.wav

Peak level 97.8 %
Range quality 99.9 %
Test CRC 036F836B
Copy CRC 036F836B
Copy OK

No errors occurred

End of status report
Audiochecker Log
AUDIOCHECKER v2.0 beta (build 457) - by Dester - [email protected]
~~~~~~~~~~~~~~~~~~~~~~~~~~~~~~~~~~
-=== DO NOT EDIT THIS FILE! ===-

Path: ...\2007 - Kofein

01 -=- 01 - Ой Нема Того.wav -=- CDDA (100%)
02 -=- 02 - Чорноморець.wav -=- CDDA (100%)
03 -=- 03 - Рясна-Красна.wav -=- CDDA (100%)
04 -=- 04 - Туман Яром.wav -=- CDDA (100%)
05 -=- 05 - Приспівки.wav -=- CDDA (100%)
06 -=- 06 - Ой Учора У Куми.wav -=- CDDA (100%)
07 -=- 07 - Василиха.wav -=- CDDA (100%)
08 -=- 08 - Калина-Малина.wav -=- CDDA (99%)
09 -=- 09 - Сядай, Сядай.wav -=- CDDA (100%)
10 -=- 10 - Тиха-Тиха.wav -=- CDDA (100%)
11 -=- 11 - Та Нема Гірш Нікому.wav -=- CDDA (100%)
12 -=- 12 - Мій Народ.wav -=- CDDA (100%)
13 -=- 13 - Бонус.wav -=- CDDA (100%)

Summary 99,92% CDDA

242858948
2010 - Опір Матеріалів


01 - Тарамтаратіда - 3:19
02 - Репанк - 3:00
03 - Хто ти Є? - 3:03
04 - Принцеса Аренбі - 3:00
05 - Книжковий Хробак - 3:26
06 - Моральний Секс - 3:21
07 - Звабте Мене - 2:54
08 - В Моєму Світі - 2:58
09 - Qарпа-ратів - 3:09
10 - Майже На - 4:07
11 - Ай Хай - 3:15
12 - Ти Подумай - 3:53
13 - 3Dенс - 3:33
14 - Атомна Помпа - 3:11
15 - Дж...Ангел - 3:25

Тривалість: 00:49:35
Видавець: ЯОК Music
EAC Log
EAC extraction logfile from 13. May 2010, 22:29 for CD
Тартак / Опір Матеріалів

Used drive : Optiarc DVD RW AD-7203S Adapter: 2 ID: 0
Read mode : Secure with NO C2, accurate stream, NO disable cache
Combined read/write offset correction : 0
Overread into Lead-In and Lead-Out : No

Used output format : Internal WAV Routines
44.100 Hz; 16 Bit; Stereo

Other options :
Fill up missing offset samples with silence : Yes
Delete leading and trailing silent blocks : No
Native Win32 interface for Win NT & 2000

Range status and errors
Selected range
Filename F:\temp\Тартак - Опір Матеріалів.wav

Peak level 100.0 %
Range quality 100.0 %
CRC B952E909
Copy OK

No errors occured

End of status report
Audiochecker Log
AUDIOCHECKER v2.0 beta (build 457) - by Dester - [email protected]
~~~~~~~~~~~~~~~~~~~~~~~~~~~~~~~~~~
-=== DO NOT EDIT THIS FILE! ===-

Path: ...\2010 - Опір Матеріалів

01 -=- 01 - Тарамтаратіда.wav -=- CDDA (100%)
02 -=- 02 - Репанк.wav -=- CDDA (100%)
03 -=- 03 - Хто ти Є.wav -=- CDDA (100%)
04 -=- 04 - Принцеса Аренбі.wav -=- CDDA (100%)
05 -=- 05 - Книжковий Хробак.wav -=- CDDA (100%)
06 -=- 06 - Моральний Секс.wav -=- CDDA (100%)
07 -=- 07 - Звабте Мене.wav -=- CDDA (100%)
08 -=- 08 - В Моєму Світі.wav -=- CDDA (100%)
09 -=- 09 - Qарпа-ратів.wav -=- CDDA (100%)
10 -=- 10 - Майже На.wav -=- CDDA (100%)
11 -=- 11 - Ай Хай.wav -=- CDDA (100%)
12 -=- 12 - Ти Подумай.wav -=- CDDA (100%)
13 -=- 13 - 3Dенс.wav -=- CDDA (100%)
14 -=- 14 - Атомна Помпа.wav -=- CDDA (100%)
15 -=- 15 - Дж...Ангел.wav -=- CDDA (100%)

Summary 100,00% CDDA

91029604
Тривалість: 09:27:32
Мова: українська
Аудіо-кодек: APE (альбоми 01-08)
Аудіо-кодек: (альбоми 09-10)
Ріп: image+*.cue (EAC Log, audiochecker log)
EAC: Secure + Accurate stream + disable cache/C2 + Read offset correction (крім 2010)
Бітрейт: lossless (~860-1049 кбіт/с)
ОНОВЛЕНО 19.10.2009
Додано максі-сингл "2006 - Україно, Забивай!"
ОНОВЛЕНО 28.02.2010
Додано "2007 - Тартак та Гуляйгород. Kofein"
ОНОВЛЕНО 20.05.2010
Додано "2010 - Опір матеріалів"
Джерело: stepex [torrents.net.ua]


Золотий реліз (завантажене не впливає на рейтинг)
 Трекер:    Зареєстрований   

Завантажити / скачати українську музику



відео для новачків



 Зареєстрований:   2010-05-20 12:09
 Розмір:   4.02 GB 
 Оцінка музики:   9.8/10 (Голосів: 84)
   
ssTAss 
Модератор музики


З нами з: 05.07.08
Востаннє: 23.07.19
Повідомлень: 15183

2009-10-01 15:14  
plyrvt написано:
Видавець: невідомий

в 2006 році цей диск видав (перевидав) MOON Records, а в 2001, кажись, Воля Музика

дякую за колекцію

Konfucius 
Управління
Управління


З нами з: 30.09.07
Востаннє: 23.07.19
Повідомлень: 5182

2009-10-01 20:28  
Дякую, люблю деколи послухати Happy Особливо Музичний лист щастя і Систему нервів.
Metuk 
VIP


З нами з: 14.02.09
Востаннє: 16.07.19
Повідомлень: 288

2009-10-01 20:43  
Дякую, при нагоді скачаюHappy
plyrvt 
VIP


З нами з: 04.12.08
Востаннє: 22.07.19
Повідомлень: 400

2009-10-01 21:42  
Цитата:
в 2006 році цей диск видав (перевидав) MOON Records, а в 2001, кажись, Воля Музика

Значить Воля Музика, бо це не перевидання, а оригінальний дебютний альбом

skorpius1 
Новенький


З нами з: 14.08.09
Востаннє: 30.06.19
Повідомлень: 4

2009-10-01 22:24  
Дуже дякую))
Krol 
Поважний учасник


З нами з: 12.01.08
Востаннє: 06.06.19
Повідомлень: 200

2009-10-01 23:17  
вельми вдячний за реліз
KevinCostner 
Свій


З нами з: 03.08.08
Востаннє: 12.07.19
Повідомлень: 6989

2009-10-01 23:43  
Дяка за lossless
pop_v_trysah 
Поважний учасник


З нами з: 16.01.09
Востаннє: 15.07.19
Повідомлень: 238

2009-10-02 02:57  
Дякую за реліз!!)))))

от тільки підкажіть що то за такий "цікавий" формат в цих аудіо-записів????

plyrvt 
VIP


З нами з: 04.12.08
Востаннє: 22.07.19
Повідомлень: 400

2009-10-02 09:50  
pop_v_trysah гугл вам в поміч, отче
Soyer 
Відео Гуртом - фільмокрай
Відео Гуртом - фільмокрай


З нами з: 10.10.07
Востаннє: 04.06.19
Повідомлень: 680

2009-10-02 19:13  
хто завтра на Тартака на "Сталкер-фест" йде? можна влаштувати київську здибанку...
TARTAK 
Новенький


З нами з: 18.05.08
Востаннє: 20.08.18
Повідомлень: 2

2009-10-04 14:29  
Все це классно але у меня ці образи не відкриваються нічим, пробував Алкоголь Неро Клон Драйв и Деімон Тулз всі пишуть непідтримуваний формат або файл пошкоджено Sad (1)
plyrvt 
VIP


З нами з: 04.12.08
Востаннє: 22.07.19
Повідомлень: 400

2009-10-04 14:32  
TARTAK це не образи, це музичні файли які можна
а) відразу слухати будь-яким плеєром який підтримує CUE (foobar2000, AIMP2, Winamp + in_cue)
б) випалювати на CD-R через програми які підтримують CUE (Nero, Burnnn, EAC)

P.S. Якщо не знаєте що це і навіщо може зразу сюди: [Alternative] Тартак | Дискографія / 10 альбомів (2001-2007) [MP3]

TARTAK 
Новенький


З нами з: 18.05.08
Востаннє: 20.08.18
Повідомлень: 2

2009-10-04 14:36  
ооо дякую зараз поставлю аімп і спробую (навіть ніколи не чув про такі музічні файли Confused ).
Soyer 
Відео Гуртом - фільмокрай
Відео Гуртом - фільмокрай


З нами з: 10.10.07
Востаннє: 04.06.19
Повідомлень: 680

2009-10-04 15:47  
TARTAK
не забивай голову і завантаж реліз в mp3...

pop_v_trysah 
Поважний учасник


З нами з: 16.01.09
Востаннє: 15.07.19
Повідомлень: 238

2009-10-05 23:55  
plyrvt
ДЯКУЮ ЗА ПОРАДУ))))

plyrvt 
VIP


З нами з: 04.12.08
Востаннє: 22.07.19
Повідомлень: 400

2009-10-19 15:10  
Прохання до сідерів - перекачати торент, додався новий альбом.
drovosek 
Новенький


З нами з: 20.11.09
Востаннє: 20.11.09
Повідомлень: 1

2009-11-20 18:15  
Дякую!!!!
plyrvt 
VIP


З нами з: 04.12.08
Востаннє: 22.07.19
Повідомлень: 400

2010-02-28 04:56  
Прохання до сідерів - перекачати торент, додався новий альбом.
umnikus 
Новенький


З нами з: 03.10.09
Востаннє: 18.10.18
Повідомлень: 4

2010-04-10 08:41  
Дякую.. просто супер...Слава нації! смерть ворогам! Слухай українське !
plyrvt 
VIP


З нами з: 04.12.08
Востаннє: 22.07.19
Повідомлень: 400

2010-05-20 18:42  
Прохання до сідерів - перекачати торент, додався новий альбом.
Numan 
Новенький


З нами з: 14.12.09
Востаннє: 01.09.16
Повідомлень: 11

2010-05-20 23:04  
Дякую друже - plyrvt !
xajik 
Свій


З нами з: 17.02.10
Востаннє: 01.07.19
Повідомлень: 60

2010-07-20 20:06  
супер реліз !! ДЯКУЮ !
dreamovich 
Свій


З нами з: 04.03.09
Востаннє: 22.07.19
Повідомлень: 59

2010-08-16 15:14  
Найкращий альбом - Гуляйгород 2005!
nonamelogin 
Новенький


З нами з: 15.08.10
Востаннє: 14.01.11
Повідомлень: 1

2010-08-30 03:25  
в кого є мінус на пісню "я не хочу" киньте плз
Lion91 
Фільмографії та Фільми за жанрами


З нами з: 28.01.10
Востаннє: 23.07.19
Повідомлень: 361

2010-10-05 11:07  
plyrvt , Дякую.Happy
atriamer 
Новенький


З нами з: 11.12.10
Востаннє: 11.12.10
Повідомлень: 1

2010-12-11 00:17  
дякі за lossless
давно шукав!

Torus 
Новенький


З нами з: 11.11.11
Востаннє: 16.10.14
Повідомлень: 2

2011-11-11 13:33  
Дякую за реліз. Тільки чомусь немає файла .cue в альбомі "Україно, Забивай!"
Козак_я 
Новенький


З нами з: 14.12.08
Востаннє: 02.06.19
Повідомлень: 18

2012-01-12 15:48  
дякую. хороший гурт. хороша музика.
[DOLPHIN] 
Новенький


З нами з: 08.11.09
Востаннє: 25.04.19
Повідомлень: 3

2012-02-29 16:06  
піддайте жару будь ласка, швидкість аж ніяка
Ваш часовий пояс: GMT + 2 Години

Нова тема   Відповісти Сторінка:  1, 2  наступна