protoU | Дискографiя (5CD) (2015-2017) [FLAC] | Ambient / Dark Ambient / Drone

Нові коментарі

Нова тема   Відповісти
Останній раз роздавалося kolpavel (2017-08-23)
Автор Повідомлення
kolpavel 
VIP


З нами з: 04.05.14
Востаннє: 23.08.17
Повідомлень: 1155

2016-10-09 18:47  
protoU | Дискографiя (5CD) (2015-2017) [FLAC] | Ambient / Dark Ambient / Drone

protoU | Дискографiя (5CD) (2015-2017) [FLAC] | Ambient / Dark Ambient / Drone


Стиль: Ambient Dark Ambient Drone
Країна, місто: Україна, Київ
Видавець: Cryo Chamber

Виконавці:
Sasha Cats

Альбоми:
2015 - Earth Songs - Dronny Darko & ProtoU (split)

protoU | Дискографiя (5CD) (2015-2017) [FLAC] | Ambient / Dark Ambient / Drone


Виконавці:
Sasha Cats (Україна, Київ)
Dronny Darko (Україна, Київ)

Треклист:
1. Explosion [13.8 Billion Years Ago] - 07:03
2. Life Beneath The Surface [3.8 Billion Years Ago] - 07:29
3. Riparian Forest [300 Million Years Ago] - 07:37
4. Extinction [66 Million Years Ago] - 11:03
5. Primate [50 Million Years Ago] - 06:41
6. Singularity [2045 AD] - 05:20
7. Leaving Earth [2135 AD] - 10:02

Тривалість: 00:55:18
Мова: iнструментальнi композицiї
Бітрейт: 1073-1413 кб/с
динамічний діапазон
foobar2000 1.3.9 / Dynamic Range Meter 1.1.1
log date: 2016-10-08 00:32:43

--------------------------------------------------------------------------------
Analyzed: Dronny Darko & protoU / Earth Songs
--------------------------------------------------------------------------------

DR Peak RMS Duration Track
--------------------------------------------------------------------------------
DR10 -2.40 dB -14.62 dB 7:04 01-Explosion [ 13.8 Billion Years Ago ]
DR8 -1.76 dB -12.05 dB 7:29 02-Life Beneath The Surface [ 3.8 Billion Years Ago ]
DR8 -2.63 dB -13.97 dB 7:38 03-Riparian Forest [ 300 Million Years Ago ]
DR11 -3.09 dB -17.22 dB 11:03 04-Extinction [ 66 Million Years Ago ]
DR10 -3.18 dB -15.03 dB 6:42 05-Primate [ 50 Million Years Ago ]
DR10 -1.76 dB -13.30 dB 5:20 06-Singularity [ 2045 AD ]
DR8 -2.83 dB -13.54 dB 10:03 07-Leaving Earth [ 2135 AD ]
--------------------------------------------------------------------------------

Number of tracks: 7
Official DR value: DR9

Samplerate: 44100 Hz
Channels: 2
Bits per sample: 24
Bitrate: 1157 kbps
Codec: FLAC
================================================================================
2016 - Lost Here

protoU | Дискографiя (5CD) (2015-2017) [FLAC] | Ambient / Dark Ambient / Drone


Треклист:
1. Lost Here - 07:58
2. Static Memories - 04:59
3. The Map - 07:57
4. Unreal Symbols - 10:59
5. The Sea - 07:55
6. Believe - 05:58

Тривалість: 00:45:50
Мова: iнструментальнi композицiї
Бітрейт: 1184-1355 кб/с
динамічний діапазон
foobar2000 1.3.9 / Dynamic Range Meter 1.1.1
log date: 2016-10-08 00:20:55

--------------------------------------------------------------------------------
Analyzed: protoU / Lost Here
--------------------------------------------------------------------------------

DR Peak RMS Duration Track
--------------------------------------------------------------------------------
DR10 -1.61 dB -14.54 dB 7:59 01-Lost Here
DR10 -0.20 dB -14.24 dB 5:00 02-Static Memories
DR9 -0.20 dB -11.06 dB 7:58 03-The Map
DR9 -0.20 dB -12.00 dB 11:00 04-Unreal Symbols
DR9 -0.20 dB -11.84 dB 7:56 05-The Sea
DR8 -0.20 dB -11.75 dB 5:59 06-Believe
--------------------------------------------------------------------------------

Number of tracks: 6
Official DR value: DR9

Samplerate: 44100 Hz
Channels: 2
Bits per sample: 24
Bitrate: 1211 kbps
Codec: FLAC
================================================================================
2016 - Khmaoch

protoU | Дискографiя (5CD) (2015-2017) [FLAC] | Ambient / Dark Ambient / Drone


Треклист:
1. Bridge of Storms - 05:17
2. Stygian Vortex - 08:01
3. Skar Mekh - 06:32
4. Voices of the Water - 05:00
5. Pel - 04:00
6. Dai Robsa Preah - 10:00
7. Stones in Snow - 07:00

Тривалість: 00:45:54
Мова: iнструментальнi композицiї
Бітрейт: 1236-1435 кб/с
динамічний діапазон
foobar2000 1.3.11 / Замер динамического диапазона (DR) 1.1.1
Дата отчёта: 2016-10-22 12:58:42

--------------------------------------------------------------------------------
Анализ: ProtoU / Khmaoch
--------------------------------------------------------------------------------

DR Пики RMS Продолжительность трека
--------------------------------------------------------------------------------
DR8 -0.21 дБ -9.76 дБ 5:18 01-Bridge of Storms
DR8 -0.21 дБ -10.69 дБ 8:02 02-Stygian Vortex
DR10 -0.21 дБ -11.64 дБ 6:32 03-Skar Mekh
DR9 -0.21 дБ -11.89 дБ 5:01 04-Voices of the Water
DR10 -0.21 дБ -11.67 дБ 4:00 05-Pel
DR8 -0.21 дБ -10.13 дБ 10:00 06-Dai Robsa Preah
DR8 -0.21 дБ -10.79 дБ 7:01 07-Stones in Snow
--------------------------------------------------------------------------------

Количество треков: 7
Реальные значения DR: DR9

Частота: 44100 Гц
Каналов: 2
Разрядность: 24
Битрейт: 1335 кбит/с
Кодек: FLAC
================================================================================
2017 - Alphaxone & ProtoU - Stardust (split)

protoU | Дискографiя (5CD) (2015-2017) [FLAC] | Ambient / Dark Ambient / Drone


Виконавці:
Sasha Cats (Україна, Київ)
Alphaxone (Iран)

Треклист:
1. Consumed - 09:05
2. Planemo Dreams - 08:37
3. Observing Quasars - 06:50
4. Versus - 07:06
5. Sub Signal - 05:08
6. Alignments - 03:24
7. Returned - 04:22

Тривалість: 00:44:35
Мова: iнструментальнi композицiї
Бітрейт: 1192-1419 кб/с
динамічний діапазон
foobar2000 1.3.14 / Dynamic Range Meter 1.1.1
log date: 2017-01-27 22:10:49

--------------------------------------------------------------------------------
Analyzed: Alphaxone & ProtoU / Stardust
--------------------------------------------------------------------------------

DR Peak RMS Duration Track
--------------------------------------------------------------------------------
DR11 -0.43 dB -16.23 dB 9:05 01-Consumed
DR11 -0.75 dB -14.68 dB 8:38 02-Planemo Dreams
DR9 -0.43 dB -13.06 dB 6:50 03-Observing Quasars
DR9 -0.50 dB -12.18 dB 7:06 04-Versus
DR9 -0.43 dB -11.91 dB 5:08 05-Sub Signal
DR9 -0.43 dB -12.31 dB 3:24 06-Alignments
DR9 -1.16 dB -13.53 dB 4:23 07-Returned
--------------------------------------------------------------------------------

Number of tracks: 7
Official DR value: DR10

Samplerate: 44100 Hz
Channels: 2
Bits per sample: 24
Bitrate: 1384 kbps
Codec: FLAC
================================================================================
2017 - ProtoU & Hilyard - Alpine Respire (split)

protoU | Дискографiя (5CD) (2015-2017) [FLAC] | Ambient / Dark Ambient / Drone


Виконавці:
Sasha Cats (Україна, Київ)
Hilyard (Maine, US)

Треклист:
1. Alpine Respire - 09:00
2. Blood Grass Sojourn - 12:12
3. Cave Lights on the Bay of Bengal - 07:03
4. Boreal Distillate - 07:00
5. Final Refugium - 08:50
6. Elwha Snowfinger - 07:08

Тривалість: 00:51:16
Мова: iнструментальнi композицiї
Бітрейт: 1128 -1591 кб/с
динамічний діапазон
foobar2000 1.3.16 / Замер динамического диапазона (DR) 1.1.1
Дата отчёта: 2017-08-01 13:37:51

--------------------------------------------------------------------------------
Анализ: ProtoU & Hilyard / Alpine Respire
--------------------------------------------------------------------------------

DR Пики RMS Продолжительность трека
--------------------------------------------------------------------------------
DR8 0.00 дБ -10.63 дБ 9:01 01-Alpine Respire
DR11 0.00 дБ -12.93 дБ 12:12 02-Blood Grass Sojourn
DR10 0.00 дБ -12.37 дБ 7:03 03-Cave Lights on the Bay of Bengal
DR9 0.00 дБ -10.27 дБ 7:00 04-Boreal Distillate
DR9 0.00 дБ -10.56 дБ 8:51 05-Final Refugium
DR9 0.00 дБ -10.46 дБ 7:09 06-Elwha Snowfinger
--------------------------------------------------------------------------------

Количество треков: 6
Реальные значения DR: DR10

Частота: 44100 Гц
Каналов: 2
Разрядность: 24
Битрейт: 1128 кбит/с
Кодек: FLAC
================================================================================
Тривалість: 04:02:54
Мова: iнструментальнi композицiї
Аудіо-кодек: FLAC
Бітрейт: 1073-1591 кб/с
Джерело: трекер
Додаткова інформація:


Золотий реліз (завантажене не впливає на рейтинг)
 Трекер:    Зареєстрований   

Завантажити / скачати українську музику



відео для новачків



 Зареєстрований:   2017-08-02 22:24
 Розмір:   2.24 GB 
 Оцінка музики:   10/10 (Голосів: 1)
   
Ваш часовий пояс: GMT + 2 Години

Нова тема   Відповісти