Льодовиковий період: Курс на зіткнення / Ice Age: Collision Course (2016) 1080p 3D [HalfOverUnder] Ukr/Eng | Sub Ukr/Eng

Нові коментарі

Нова тема   Відповісти
Автор Повідомлення
-VipeR- 
VIP


З нами з: 17.07.08
Востаннє: 23.08.17
Повідомлень: 289

2016-10-06 12:50  
Льодовиковий період: Курс на зіткнення / Ice Age: Collision Course (2016) 1080p 3D [HalfOverUnder] Ukr/Eng | Sub Ukr/Eng

Льодовиковий період: Курс на зіткнення / Ice Age: Collision Course (2016) 1080p 3D [HalfOverUnder] Ukr/Eng | Sub Ukr/Eng


Жанр: анімація, комедія, пригоди
Країна: США



Кінокомпанія: Blue Sky Studios, Twentieth Century Fox Animation
Режисер: Майк Трумейєр, Ґален Т. Чу
Актори: Рей Романо, Джон Леґуізамо, Деніс Лірі, Мелісса Рауч, Квін Латіфа, Шонн Вільям Скотт, Джош Пек, Дженніфер Лопез, Саймон Пеґґ, Адам Дівайн

Сюжет:
П'ята частина популярної франшизи про пригоди звірів з доісторичної епохи. Хто б міг подумати, що гонитва невтомної білки Скрата за жолудем може перетворитися на катастрофу планетарного масштабу? Випадкова серія подій призводить до загрози всьому живому на Землі. Сід, Дієґо, Менні та інші змушені відправитися на пошуки безпечного місця. На своєму шляху вони переживуть багато пригод, смішних моментів, а також познайомляться з новими цікавими персонажами.


Тривалість: 01:35:05
Якість: 1080p 3D [HalfOverUnder] by ash61
Відео:
кодек:
розмір кадру: 1920 х 1080
бітрейт: 11,3 мбіт/с

Аудіо # 1:
переклад: професійний дубльований
мова: українська
кодек: 5.1
бітрейт: 448 кб/с

Аудіо # 2:
мова: англійська
переклад: оригінал
кодек: 5.1
бітрейт: 640 кб/с

Субтитри:
мова: українська (форсовані, повні)
тип: програмні (м'які)
формат: *.srt

Субтитри:
мова: англійська (повні)
тип: програмні (м'які)
формат: *.srt
Info
Код:
General
Unique ID                      : 207882396170675633530664128674338230658 (0x9C64B173903AA52BB80D2F7750BCD182)
Complete name                  : D:\Фільми\Ice Age Collision Course (2016) 1080p 3D [HalfOverUnder] UkrEng  Sub UkrEng.
Format                         :
Format version                 : Version 4 / Version 2
File size                      : 8.20 GiB
Duration                       : 1 h 34 min
Overall bit rate               : 12.4 Mb/s
Movie name                     : Льодовиковий період: Курс на зіткнення  / Ice Age: Collision Course (2016) у 3D
Encoded date                   : UTC 2016-11-08 13:48:01
Writing application            : mkvmerge v8.8.0 ('Wind at my back') 64bit
Writing library                : libebml v1.3.3 + libmatroska v1.4.4
Cover                          : Yes
Attachments                    : cover.jpg

Video
ID                             : 1
Format                         : AVC
Format/Info                    : Advanced Video Codec
Format profile                 : [email protected]
Format settings, CABAC         : Yes
Format settings, ReFrames      : 4 frames
Codec ID                       : V_MPEG4/ISO/AVC
Duration                       : 1 h 34 min
Bit rate                       : 11.3 Mb/s
Width                          : 1 920 pixels
Height                         : 1 080 pixels
Display aspect ratio           : 16:9
Frame rate mode                : Constant
Frame rate                     : 23.976 (24000/1001) FPS
Color space                    : YUV
Chroma subsampling             : 4:2:0
Bit depth                      : 8 bits
Scan type                      : Progressive
Bits/(Pixel*Frame)             : 0.228
Stream size                    : 7.48 GiB (91%)
Title                          : by Ash61
Writing library                : core 146 r2538 121396c
Encoding settings              : cabac=1 / ref=4 / deblock=1:-3:-3 / analyse=0x3:0x113 / me=umh / subme=10 / psy=1 / psy_rd=1.00:0.00 / mixed_ref=1 / me_range=32 / chroma_me=1 / trellis=2 / 8x8dct=1 / cqm=0 / deadzone=21,11 / fast_pskip=1 / chroma_qp_offset=-2 / threads=12 / lookahead_threads=3 / sliced_threads=0 / nr=0 / decimate=1 / interlaced=0 / bluray_compat=0 / constrained_intra=0 / bframes=10 / b_pyramid=2 / b_adapt=2 / b_bias=0 / direct=3 / weightb=1 / open_gop=0 / weightp=2 / keyint=250 / keyint_min=23 / scenecut=40 / intra_refresh=0 / rc_lookahead=60 / rc=crf / mbtree=1 / crf=15.0 / qcomp=0.70 / qpmin=0 / qpmax=69 / qpstep=4 / vbv_maxrate=40000 / vbv_bufsize=30000 / crf_max=0.0 / nal_hrd=none / filler=0 / frame-packing=4 / ip_ratio=1.40 / aq=1:0.70
Language                       : English
Default                        : Yes
Forced                         : No

Audio #1
ID                             : 2
Format                         : AC-3
Format/Info                    : Audio Coding 3
Mode extension                 : CM (complete main)
Format settings, Endianness    : Big
Codec ID                       : A_AC3
Duration                       : 1 h 34 min
Bit rate mode                  : Constant
Bit rate                       : 448 kb/s
Channel(s)                     : 6 channels
Channel positions              : Front: L C R, Side: L R, LFE
Sampling rate                  : 48.0 kHz
Frame rate                     : 31.250 FPS (1536 spf)
Compression mode               : Lossy
Stream size                    : 303 MiB (4%)
Title                          : Дубляж BD
Language                       : Ukrainian
Default                        : Yes
Forced                         : No

Audio #2
ID                             : 3
Format                         : AC-3
Format/Info                    : Audio Coding 3
Mode extension                 : CM (complete main)
Format settings, Endianness    : Big
Codec ID                       : A_AC3
Duration                       : 1 h 34 min
Bit rate mode                  : Constant
Bit rate                       : 640 kb/s
Channel(s)                     : 6 channels
Channel positions              : Front: L C R, Side: L R, LFE
Sampling rate                  : 48.0 kHz
Frame rate                     : 31.250 FPS (1536 spf)
Compression mode               : Lossy
Stream size                    : 432 MiB (5%)
Title                          : Original
Language                       : English
Default                        : No
Forced                         : No

Text #1
ID                             : 4
Format                         : UTF-8
Codec ID                       : S_TEXT/UTF8
Codec ID/Info                  : UTF-8 Plain Text
Duration                       : 1 h 21 min
Bit rate                       : 0 b/s
Count of elements              : 3
Stream size                    : 145 Bytes (0%)
Title                          : Форсовані
Language                       : Ukrainian
Default                        : Yes
Forced                         : No

Text #2
ID                             : 5
Format                         : UTF-8
Codec ID                       : S_TEXT/UTF8
Codec ID/Info                  : UTF-8 Plain Text
Duration                       : 1 h 33 min
Bit rate                       : 89 b/s
Count of elements              : 1225
Stream size                    : 61.3 KiB (0%)
Title                          : Повні
Language                       : Ukrainian
Default                        : No
Forced                         : No

Text #3
ID                             : 6
Format                         : UTF-8
Codec ID                       : S_TEXT/UTF8
Codec ID/Info                  : UTF-8 Plain Text
Duration                       : 1 h 23 min
Bit rate                       : 60 b/s
Count of elements              : 1221
Stream size                    : 36.9 KiB (0%)
Title                          : Full
Language                       : English
Default                        : No
Forced                         : No

Menu
00:00:00.000                   : :1
00:03:09.104                   : :2
00:05:24.365                   : :3
00:09:06.086                   : :4
00:13:22.301                   : :5
00:18:05.750                   : :6
00:20:50.582                   : :7
00:23:10.305                   : :8
00:27:29.897                   : :9
00:30:15.980                   : :10
00:32:54.346                   : :11
00:36:13.588                   : :12
00:39:33.454                   : :13
00:42:58.701                   : :14
00:47:35.018                   : :15
00:51:11.735                   : :16
00:55:50.764                   : :17
01:01:09.456                   : :18
01:05:06.402                   : :19
01:09:39.300                   : :20
01:14:36.889                   : :21
01:17:41.530                   : :22
01:21:43.064                   : :23
01:24:46.497                   : :24
Скріншоти


Джерело: &

Відео для перегляду на 3D обладнанні!


 Трекер:    Зареєстрований   

Завантажити / скачати мультфільм українською



відео для новачків



 Зареєстрований:   2016-11-08 21:51
 Розмір:   8.2 GB 
 Оцінка мультфільму:   8.4/10 (Голосів: 13)
   
11FrYkT 
Модератор відео


З нами з: 20.02.11
Востаннє: 23.08.17
Повідомлень: 3821

2016-11-08 21:58  
-VipeR- написано:

переклад: професійний дубльований
мова: українська
бітрейт: 448 кб/с


кодек аудіо забули

-VipeR- 
VIP


З нами з: 17.07.08
Востаннє: 23.08.17
Повідомлень: 289

2016-11-08 22:48  
11FrYkT
Виправив!

Реліз оновлено!
Аудіо доріжку замінено на доріжку з Blu-Ray.
Додано українські субтитри.

11FrYkT 
Модератор відео


З нами з: 20.02.11
Востаннє: 23.08.17
Повідомлень: 3821

2016-11-08 23:37  
забув
золото на тиждень

PUMAUA 
Свій


З нами з: 07.11.09
Востаннє: 15.08.17
Повідомлень: 79

2016-12-18 00:02  
Зіпсувався мульт чи то я постарів, перші частини більше сподобались.
Ваш часовий пояс: GMT + 2 Години

Нова тема   Відповісти