Льодовиковий період: Курс на зіткнення / Ice Age: Collision Course (2016) 720p Ukr/Eng | Sub Ukr/Eng

Нові коментарі

Нова тема   Відповісти
Автор Повідомлення
Anonymous 







2016-09-30 12:39  
Льодовиковий період: Курс на зіткнення / Ice Age: Collision Course (2016) 720p Ukr/Eng | Sub Ukr/Eng

Льодовиковий період: Курс на зіткнення / Ice Age: Collision Course (2016) 720p Ukr/Eng | Sub Ukr/Eng

Повна колекція українських постерів















Жанр: анімація, комедія, фантастика, пригодницький, сімейний
Країна: США



Кінокомпанія: Blue Sky Studios, Twentieth Century Fox Animation
Режисер: Майк Трумейєр / Mike Thurmeier, Ґален Т. Чу / Galen T. Chu
Ролі озвучили: Рей Романо / Ray Romano, Джон Леґуізамо / John Leguizamo, Деніс Лірі / Denis Leary, Мелісса Рауч / Melissa Rauch, Квін Латіфа / Queen Latifah, Шонн Вільям Скотт / Seann William Scott, Джош Пек / Josh Peck, Дженніфер Лопез / Jennifer Lopez, Саймон Пеґґ / Simon Pegg, Адам Дівайн / Adam Devine та інші

Сюжет:
П'ята частина популярної франшизи про пригоди звірів з доісторичної епохи. Хто б міг подумати, що гонитва невтомної білки Скрата за жолудем може перетворитися на катастрофу планетарного масштабу? Випадкова серія подій призводить до загрози всьому живому на Землі. Сід, Дієґо, Менні та інші змушені відправитися на пошуки безпечного місця. На своєму шляху вони переживуть багато пригод, смішних моментів, а також познайомляться з новими цікавими персонажами.

Ще два українських трейлера




Рейтинг MPAA: PG - рекомендується присутність батьків
Вікова категорія: 6+

Тривалість: 01:34:32
Якість: 720p [VietHD]
Відео:
кодек:
розмір кадру: 1280 х 534
бітрейт: 5741 Кбіт/с [crf=15.3]

Аудіо # 1:
мова: українська
переклад: професійний дубльований | Postmodern
кодек: 5.1
бітрейт: 448 Кбіт/с
Інформація про дубляж
Переклад: Надія Бойван
Режисер дубляжу: Людмила Петриченко
Звукорежисер: Геннадій Алексєєв
Ролі дублювали: Дмитро Вікулов, Євген Пашин, Павло Скороходько, Юрій Ребрик, Лариса Руснак, Андрій Соболєв, Юлія Шаповал, Анастасія Зіновенко, Андрій Твердак, Ірина Дорошенко та інші.
Мультфільм дубльовано компанією Postmodern
Аудіо # 2:
мова: англійська
переклад: оригінал
кодек: -ES 6.1
бітрейт: 1509 Кбіт/с

Субтитри # 1-2:
мова: українська (форсовані, повні)
тип: програмні (м'які)
формат: *.srt

Субтитри # 3:
мова: англійська
тип: програмні (м'які)
формат: *.srt

Збережено оригінальні розділи, як на Blu-ray.
Info
Код:
Complete name               : Ice Age Collision Course (2016) [Ukr,Eng sub.Ukr,Eng] 720p [Hurtom].
Format                      :
Format version              : Version 4 / Version 2
File size                   : 5.08 GiB
Duration                    : 1 h 34 min
Overall bit rate            : 7 700 kb/s
Movie name                  : Льодовиковий період: Курс на зіткнення / Ice Age Collision Course (2016) [Ukr,Eng sub.Ukr,Eng] 720p [Hurtom]

Video
ID                          : 1
Format                      : AVC
Format/Info                 : Advanced Video Codec
Format profile              : [email protected]
Format settings, CABAC      : Yes
Format settings, ReFrames   : 12 frames
Codec ID                    : V_MPEG4/ISO/AVC
Duration                    : 1 h 34 min
Bit rate                    : 5 741 kb/s
Width                       : 1 280 pixels
Height                      : 534 pixels
Display aspect ratio        : 2.40:1
Frame rate mode             : Constant
Frame rate                  : 23.976 (24000/1001) FPS
Color space                 : YUV
Chroma subsampling          : 4:2:0
Bit depth                   : 8 bits
Scan type                   : Progressive
Bits/(Pixel*Frame)          : 0.350
Stream size                 : 3.79 GiB (75%)
Title                       : Льодовиковий період: Курс на зіткнення / Ice Age: Collision Course (2016) 720p [VietHD]
Writing library             : core 148 r2705.16 d50a22e VietHD_Custom_64
Encoding settings           : cabac=1 / ref=12 / deblock=1:-3:-3 / analyse=0x3:0x133 / me=umh / subme=10 / psy=1 / fade_compensate=0.00 / psy_rd=0.90:0.00 / mixed_ref=1 / me_range=24 / chroma_me=1 / trellis=2 / 8x8dct=1 / cqm=0 / deadzone=21,11 / fast_pskip=0 / chroma_qp_offset=-2 / threads=56 / lookahead_threads=4 / sliced_threads=0 / nr=0 / decimate=0 / interlaced=0 / bluray_compat=0 / constrained_intra=0 / fgo=0 / bframes=8 / b_pyramid=2 / b_adapt=2 / b_bias=0 / direct=3 / weightb=1 / open_gop=0 / weightp=2 / keyint=250 / keyint_min=23 / scenecut=40 / intra_refresh=0 / rc_lookahead=60 / rc=crf / mbtree=0 / crf=15.3000 / qcomp=0.65 / qpmin=0:0:0 / qpmax=69:69:69 / qpstep=4 / vbv_maxrate=62500 / vbv_bufsize=78125 / crf_max=0.0 / nal_hrd=none / filler=0 / ip_ratio=1.30 / pb_ratio=1.20 / aq=3:0.80 / aq-sensitivity=10.00 / aq-factor=1.00:1.00:1.00 / aq2=0 / aq3=0
Language                    : English
Default                     : Yes
Forced                      : No
Color range                 : Limited
Matrix coefficients         : BT.709

Audio #1
ID                          : 2
Format                      : AC-3
Format/Info                 : Audio Coding 3
Mode extension              : CM (complete main)
Format settings, Endianness : Big
Codec ID                    : A_AC3
Duration                    : 1 h 34 min
Bit rate mode               : Constant
Bit rate                    : 448 kb/s
Channel(s)                  : 6 channels
Channel positions           : Front: L C R, Side: L R, LFE
Sampling rate               : 48.0 kHz
Frame rate                  : 31.250 FPS (1536 spf)
Compression mode            : Lossy
Stream size                 : 303 MiB (6%)
Title                       : Dub [Postmodern, Blu-ray EUR] 5.1 448 kbps
Language                    : Ukrainian
Default                     : Yes
Forced                      : No

Audio #2
ID                          : 3
Format                      :
Format/Info                 : Digital Theater Systems
Format profile              : ES Matrix / Core
Mode                        : 16
Format settings, Endianness : Big
Codec ID                    : A_DTS
Duration                    : 1 h 34 min
Bit rate mode               : Constant
Bit rate                    : 1 509 kb/s
Channel(s)                  : 7 channels / 6 channels
Channel positions           : Front: L C R, Side: L R, Back: C, LFE / Front: L C R, Side: L R, LFE
Sampling rate               : 48.0 kHz
Frame rate                  : 93.750 FPS (512 spf)
Bit depth                   : 24 bits
Compression mode            : Lossy
Delay relative to video     : 11 ms
Stream size                 : 1 020 MiB (20%)
Title                       : Original, -ES 5.1 1536 kbps
Language                    : English
Default                     : No
Forced                      : No

Text #1
ID                          : 4
Format                      : UTF-8
Codec ID                    : S_TEXT/UTF8
Codec ID/Info               : UTF-8 Plain Text
Duration                    : 1 h 21 min
Bit rate                    : 0 b/s
Count of elements           : 3
Stream size                 : 145 Bytes (0%)
Title                       : Ukr forced
Language                    : Ukrainian
Default                     : Yes
Forced                      : Yes

Text #2
ID                          : 5
Format                      : UTF-8
Codec ID                    : S_TEXT/UTF8
Codec ID/Info               : UTF-8 Plain Text
Duration                    : 1 h 33 min
Bit rate                    : 89 b/s
Count of elements           : 1225
Stream size                 : 61.3 KiB (0%)
Title                       : Ukr full
Language                    : Ukrainian
Default                     : No
Forced                      : No

Text #3
ID                          : 6
Format                      : UTF-8
Codec ID                    : S_TEXT/UTF8
Codec ID/Info               : UTF-8 Plain Text
Duration                    : 1 h 23 min
Bit rate                    : 60 b/s
Count of elements           : 1221
Stream size                 : 36.9 KiB (0%)
Title                       : Eng full
Language                    : English
Default                     : No
Forced                      : No

Menu
00:00:00.000                : en:00:00:00.000
00:03:09.106                : en:00:03:09.106
00:05:24.366                : en:00:05:24.366
00:09:06.087                : en:00:09:06.087
00:13:22.301                : en:00:13:22.301
00:18:05.751                : en:00:18:05.751
00:20:50.583                : en:00:20:50.583
00:23:10.306                : en:00:23:10.306
00:27:29.898                : en:00:27:29.898
00:30:15.981                : en:00:30:15.981
00:32:54.347                : en:00:32:54.347
00:36:13.588                : en:00:36:13.588
00:39:33.454                : en:00:39:33.454
00:42:58.701                : en:00:42:58.701
00:47:35.019                : en:00:47:35.019
00:51:11.735                : en:00:51:11.735
00:55:50.764                : en:00:55:50.764
01:01:09.457                : en:01:01:09.457
01:05:06.402                : en:01:05:06.402
01:09:39.300                : en:01:09:39.300
01:14:36.889                : en:01:14:36.889
01:17:41.532                : en:01:17:41.532
01:21:43.065                : en:01:21:43.065
01:24:46.498                : en:01:24:46.498
Оригінал <----------> Ріп











Джерело: &
Подяка п.Gelios'у за інформацію про озвучення.

ЗАЛИШАЙТЕСЬ ЯКОМОГА ДОВШЕ НА РОЗДАЧІ!
ЗАВАНТАЖИВ САМ - ДАЙ ЗАВАНТАЖИТИ ІНШИМ


 Трекер:    Зареєстрований   

Завантажити / скачати мультфільм українською



відео для новачків



 Зареєстрований:   2016-11-03 04:19
 Розмір:   5.08 GB 
 Оцінка мультфільму:   7.5/10 (Голосів: 50)
   
Anonymous 







2016-11-03 04:24  
Реліз оновлено!
Замінено відеоряд на якісніший та українську доріжку з Blu-ray CEE

Прохання підтримати, золото на тиждень.

vovang6 
Свій


З нами з: 27.08.12
Востаннє: 12.08.17
Повідомлень: 90

2016-11-05 11:22  
як мультик? Чому мовчанка?
Anonymous 







2016-11-05 11:27  
vovang6, там більше відгуків https://toloka.to/t76013
Ваш часовий пояс: GMT + 2 Години

Нова тема   Відповісти