Тонкацу DJ Аґетаро / とんかつDJアゲ太郎 (1 з 12) (2016) HDTV 720p Ukr/Jap | Sub Ukr

Нові коментарі

Нова тема   Відповісти
Автор Повідомлення
Orotandr 
Відео Гуртом - озвучення
Відео Гуртом - озвучення


З нами з: 22.09.11
Востаннє: 18.08.17
Повідомлень: 36

2016-09-29 23:27  
Тонкацу DJ Аґетаро / とんかつDJアゲ太郎 (2016) HDTV 720p Ukr/Jap | Sub Ukr

Тонкацу DJ Аґетаро / とんかつDJアゲ太郎 (1 з 12) (2016) HDTV 720p Ukr/Jap | Sub Ukr


Жанр: Комедія
Країна: Японія



Кінокомпанія: DEEN
Режисер: Даічі Акітаро
Ролі озвучують: Ямашіта Даікі, Мацуяма Такаші

Сюжет:
Аґетаро - син власника тонкацу-перекусної. За звичаєм, він має перейняти і продовжити батькове ремесло. Але от же ж зрада-йому зовсім не подобається готувати їжу. Проте одного дня доля зводить Аґетаро з великим діджеєм - Біґ Маста Фраєм, і тут до хлопця починає доходити, що крутити пластинки в клубі і крутити тонкацу у фритюрі - не такі вже й різні речі.


Тривалість: 1 серія: 9хв (цілком серій: 12)
Якість:
Відео:
кодек:
розмір кадру: 1280 х 720
бітрейт: 1700 кб/с

Аудіо # 1:
мова: українська
переклад: двоголосий закадровий
кодек: 2.0
бітрейт: 240 кб/с

Аудіо # 2:
мова: японська
переклад: багатоголосий закадровий
кодек: 2.0
бітрейт: 128 кб/с

Субтитри # 1:
мова: українська
тип: програмні (м'які), написи
формат: *.ass

Субтитри # 2:
мова: українська
тип: програмні (м'які)
формат: *.ass, повні
Info
General
General
Unique ID : 208802266015267136664583223706493884266 (0x9D15DA894BC8E733A8AD211A6D87976A)
Complete name : D:\Finished\TDJA\[PNP] Tonkatsu DJ Agetarou - 01 [720p] [Orotandr&Rina Grey].
Format :
Format version : Version 4 / Version 2
File size : 139 MiB
Duration : 9mn 0s
Overall bit rate : 2 149 Kbps
Encoded date : UTC 2016-09-29 16:10:19
Writing application : mkvmerge v9.1.0 ('Little Earthquakes') 64bit
Writing library : libebml v1.3.3 + libmatroska v1.4.4
Attachments : OpenSans-Semibold.ttf

Video
ID : 1
Format : AVC
Format/Info : Advanced Video Codec
Format profile : [email protected]
Format settings, CABAC : Yes
Format settings, ReFrames : 6 frames
Codec ID : V_MPEG4/ISO/AVC
Duration : 9mn 0s
Bit rate : 1 776 Kbps
Width : 1 280 pixels
Height : 720 pixels
Display aspect ratio : 16:9
Frame rate mode : Variable
Frame rate : 23.976 (23976/1000) fps
Color space : YUV
Chroma subsampling : 4:2:0
Bit depth : 8 bits
Scan type : Progressive
Bits/(Pixel*Frame) : 0.080
Stream size : 114 MiB (82%)
Writing library : core 120 r2120 0c7dab9
Encoding settings : cabac=1 / ref=6 / deblock=1:1:1 / analyse=0x3:0x113 / me=umh / subme=8 / psy=1 / psy_rd=0.40:0.00 / mixed_ref=1 / me_range=16 / chroma_me=1 / trellis=1 / 8x8dct=1 / cqm=0 / deadzone=21,11 / fast_pskip=1 / chroma_qp_offset=-2 / threads=4 / sliced_threads=0 / nr=0 / decimate=1 / interlaced=0 / bluray_compat=0 / constrained_intra=0 / bframes=3 / b_pyramid=2 / b_adapt=2 / b_bias=0 / direct=3 / weightb=1 / open_gop=0 / weightp=2 / keyint=250 / keyint_min=23 / scenecut=40 / intra_refresh=0 / rc_lookahead=50 / rc=2pass / mbtree=1 / bitrate=1776 / ratetol=1.0 / qcomp=0.60 / qpmin=0 / qpmax=69 / qpstep=4 / cplxblur=20.0 / qblur=0.5 / vbv_maxrate=3552 / vbv_bufsize=8880 / nal_hrd=none / ip_ratio=1.40 / aq=1:0.60
Default : Yes
Forced : No

Audio #1
ID : 2
Format :
Format/Info : Advanced Audio Codec
Format profile : LC
Codec ID : A_AAC
Duration : 9mn 0s
Bit rate : 242 Kbps
Channel(s) : 2 channels
Channel positions : Front: L R
Sampling rate : 44.1 KHz
Frame rate : 43.066 fps (1024 spf)
Compression mode : Lossy
Stream size : 15.6 MiB (11%)
Language : Ukrainian
Default : Yes
Forced : No

Audio #2
ID : 3
Format :
Format/Info : Advanced Audio Codec
Format profile : LC
Codec ID : A_AAC
Duration : 9mn 0s
Bit rate : 128 Kbps
Channel(s) : 2 channels
Channel positions : Front: L R
Sampling rate : 44.1 KHz
Frame rate : 43.066 fps (1024 spf)
Compression mode : Lossy
Stream size : 8.25 MiB (6%)
Language : Japanese
Default : No
Forced : No

Text #1
ID : 4
Format : ASS
Codec ID : S_TEXT/ASS
Codec ID/Info : Advanced Sub Station Alpha
Duration : 8mn 45s
Bit rate : 27 bps
Count of elements : 28
Compression mode : Lossless
Stream size : 1.76 KiB (0%)
Title : Написи
Language : Ukrainian
Default : Yes
Forced : Yes

Text #2
ID : 5
Format : ASS
Codec ID : S_TEXT/ASS
Codec ID/Info : Advanced Sub Station Alpha
Duration : 8mn 47s
Bit rate : 243 bps
Count of elements : 197
Compression mode : Lossless
Stream size : 15.7 KiB (0%)
Title : Повні
Language : Ukrainian
Default : No
Forced : No
Скріншоти





Джерело: Ponashomu Production
Озвучення: Orotandr, Rina Grey
Переклад: ТвояМамця
Редакція: Kotobenko
Робота зі звуком: Orotandr

Особиста оцінка: 10 з 10, це найкраще, що я бачив у 2016. Отримуємо надзвичайне задоволення працюючи над тайтлом, рекомендую!


Авторський реліз (завантажувати можна без реєстрації)
 Трекер:    Зареєстрований   

Завантажити / скачати аніме українською



відео для новачків



 Зареєстрований:   2016-09-29 23:27
 Розмір:   139 MB 
 Оцінка аніме:   10/10 (Голосів: 2)
   
FBRUA 
Модератор розділу аніме


З нами з: 09.07.13
Востаннє: 17.08.17
Повідомлень: 2041

2016-09-30 21:09  
Додайте повний звіт Info (з інформацією про аудио та субтитри).
Ваш часовий пояс: GMT + 2 Години

Нова тема   Відповісти