Любомир (2015) 1080p

Нові коментарі

Нова тема   Відповісти
Автор Повідомлення
Anonymous 







2016-09-27 19:21  
Любомир (2015) 1080p

Любомир (2015) 1080p


Жанр: документальний, історичний, біографічний
Країна: Україна

Телеканал / кіностудія: Screen Media Ukraine
Режисер веб-документарі: Олена Мошинська
Автор ідеї та сценарист: Леся Харченко
Продюсер: Павло Казанцев
Сюжет:
"Я не хочу фільму про себе і не хочу фільму заради себе.
Я просто хочу розповісти, як ми жили, щоб молодь це побачила і, можливо, по-іншому подивилась на той історичний пласт
і порівняла його з теперішнім", – відповів Любомир Гузар на пропозицію зняти про нього фільм.
Блаженніший владика Любомир Гузар – єдиний українець, якого за ясність розуму і високу духовність могли обрати Папою Римським.
Він протягом 10 років очолював Українську греко-католицьку церкву і традиційно входить до сотні найвпливовіших людей України.


Тривалість: 2 x ~00:53:00 хв
Якість:
Відео:
кодек:
розмір кадру: 1920x1080
бітрейт: ~3350 кб/с

Аудіо:
мова: українська
переклад: оригінал
кодек: 2.0
бітрейт: ~192 кб/с

Любомир





Info

General
Unique ID : 236939558240789995979575208458747892301 (0xB240E626580C71F9BAD89CA54FC3D24D)
Complete name : e:\films\бойовики\Lubomyr\Любомир. Ч.1 (2015) 1080p.
Format :
Format version : Version 4 / Version 2
File size : 1.28 GiB
Duration : 52 min
Overall bit rate mode : Variable
Overall bit rate : 3 480 kb/s
Encoded date : UTC 2015-01-08 11:05:17
Writing application : mkvmerge v7.4.0 ('Circles') 32bit built on Dec 12 2014 12:10:09
Writing library : libebml v1.3.0 + libmatroska v1.4.1

Video
ID : 1
Format : AVC
Format/Info : Advanced Video Codec
Format profile : High@L4
Format settings, CABAC : Yes
Format settings, ReFrames : 2 frames
Codec ID : V_MPEG4/ISO/AVC
Duration : 52 min
Bit rate mode : Variable
Bit rate : 3 286 kb/s
Maximum bit rate : 40.0 Mb/s
Width : 1 920 pixels
Height : 1 080 pixels
Display aspect ratio : 16:9
Frame rate mode : Constant
Frame rate : 25.000 FPS
Color space : YUV
Chroma subsampling : 4:2:0
Bit depth : 8 bits
Scan type : Progressive
Bits/(Pixel*Frame) : 0.063
Stream size : 1.20 GiB (94%)
Language : Ukrainian
Default : Yes
Forced : No

Audio
ID : 2
Format :
Format/Info : Advanced Audio Codec
Format profile : LC
Codec ID : A_AAC
Duration : 52 min
Bit rate : 192 kb/s
Channel(s) : 2 channels
Channel positions : Front: L R
Sampling rate : 44.1 kHz
Frame rate : 43.066 FPS (1024 spf)
Compression mode : Lossy
Stream size : 72.1 MiB (6%)
Language : Ukrainian
Default : Yes
Forced : No

General
Unique ID : 231839365782128605224285913204245014409 (0xAE6AA33F4EDE956F9C2A9B6D673E2789)
Complete name : e:\films\бойовики\Lubomyr\Любомир. Ч.2 (2015) 1080p.
Format :
Format version : Version 4 / Version 2
File size : 1.37 GiB
Duration : 53 min
Overall bit rate mode : Variable
Overall bit rate : 3 688 kb/s
Encoded date : UTC 2015-01-08 11:07:27
Writing application : mkvmerge v7.4.0 ('Circles') 32bit built on Dec 12 2014 12:10:09
Writing library : libebml v1.3.0 + libmatroska v1.4.1

Video
ID : 1
Format : AVC
Format/Info : Advanced Video Codec
Format profile : High@L4
Format settings, CABAC : Yes
Format settings, ReFrames : 2 frames
Codec ID : V_MPEG4/ISO/AVC
Duration : 53 min
Bit rate mode : Variable
Bit rate : 3 494 kb/s
Maximum bit rate : 40.0 Mb/s
Width : 1 920 pixels
Height : 1 080 pixels
Display aspect ratio : 16:9
Frame rate mode : Constant
Frame rate : 25.000 FPS
Color space : YUV
Chroma subsampling : 4:2:0
Bit depth : 8 bits
Scan type : Progressive
Bits/(Pixel*Frame) : 0.067
Stream size : 1.30 GiB (95%)
Language : Ukrainian
Default : Yes
Forced : No

Audio
ID : 2
Format :
Format/Info : Advanced Audio Codec
Format profile : LC
Codec ID : A_AAC
Duration : 53 min
Bit rate : 192 kb/s
Channel(s) : 2 channels
Channel positions : Front: L R
Sampling rate : 44.1 kHz
Frame rate : 43.066 FPS (1024 spf)
Compression mode : Lossy
Stream size : 72.9 MiB (5%)
Language : Ukrainian
Default : Yes
Forced : No

Джерело: EX.UA
Особиста оцінка: 10 - без зайвих вагань рекомендую всім!


Золотий реліз (завантажене не впливає на рейтинг)
 Трекер:    Зареєстрований   

Завантажити / скачати фільм українською



відео для новачків



 Зареєстрований:   2016-09-27 19:21
 Розмір:   2.64 GB 
 Оцінка фільму:   8.6/10 (Голосів: 7)
   
Anonymous 







2016-09-27 19:30  
Додайте на головну! Дякую
Форкуш 
VIP


З нами з: 03.02.10
Востаннє: 23.10.17
Повідомлень: 1888

2016-09-27 19:46  
sonjawnuk2 написано:
Додайте на головну!

яку головну, коли цей фільм ще 10 лютого релізили.

Anonymous 







2016-09-27 19:56  
Форкуш
ну і? Краща якість! Роздаю. Так чому не додати новину на головну?

Форкуш 
VIP


З нами з: 03.02.10
Востаннє: 23.10.17
Повідомлень: 1888

2016-09-27 19:58  
sonjawnuk2 написано:
ну і? Краща якість! Роздаю. Так чому не додати новину на головну?

тому, що це не новинка, щоб було на головній.

Anonymous 







2016-09-27 20:04  
Форкуш написано:
тому, що це не новинка, щоб було на головній.

Все уже додано! Не розумію ваших заперечень? Краща якість. Хай люди скачують.

Форкуш 
VIP


З нами з: 03.02.10
Востаннє: 23.10.17
Повідомлень: 1888

2016-09-27 20:08  
sonjawnuk2 написано:
Все уже додано!

відкрию вам таємницю) Туди всі релізи публікуються автоматично)

Anonymous 







2016-09-27 20:13  
Форкуш написано:
відкрию вам таємницю) Туди всі релізи публікуються автоматично)

ну я певно лиш сьогодні народився) і це мій перший реліз)
просив я, бо не бачив на головній досить довго. А якщо хочете щось комусь тут довести то це не найкраще місце!
Раділи б, що у мене кращий реліз ніж у вас)
це і єдина причина чому ви тут розвели цей балаган.

teterka 
Новенький


З нами з: 29.12.15
Востаннє: 16.10.17
Повідомлень: 16

2017-06-05 19:02  
Даний фільм у шести частинах завжди онлайн знаходиться на офіційному каналі УГКЦ "Живе телебачення" у Ютюбі.
Світла пам'ять Блаженнішому. Так мало Провідників в нашого народу.

Ваш часовий пояс: GMT + 2 Години

Нова тема   Відповісти