Залізний велетень / The Iron Giant [Signature Edition] (1999) 720p Ukr/Eng | Sub Eng

Нові коментарі

Нова тема   Відповісти
Автор Повідомлення
Anonymous 







2016-09-18 18:13  
Залізний велетень / The Iron Giant [Signature Edition] (1999) 720p Ukr/Eng | Sub Eng



Оригінальні та альтернативні постери та обкладинки

Залізний велетень / The Iron Giant [Signature Edition] (1999) 720p Ukr/Eng | Sub Eng











повнорозмірні зображення відкриються по кліку (з натиснутим CTRL чи кліком середньою кнопкою мишки - у новій вкладці)

Жанр: анімація, фантастика, бойовик, комедія, драма, пригодницький, сімейний
Країна: США



Кінокомпанія: Warner Bros., Warner Bros. Animation, Warner Bros. Feature Animation
Режисер: Бред Бірд / Brad Bird
в оригіналі ролі озвучили: Він Дізель, Дженіфер Еністон, Елі Марієнтал, Крістофер МакДональд

Сюжет:
Жителі тихої американської провінції стають свідками падіння НЛО неподалік у море. Невдовзі хлопчик Гоґарт знаходить на околиці гігантського робота, що полюбляє їсти метал. Не дивлячись на свій страхітливий вигляд, прибулець виявився найдобрішим створінням. Між ним і відчайдушним малим виникає справжня дружба. Проте, дізнавшись про існування робота, уряд та військові вирішили знищити робота. І Гоґарт - єдиний, хто може врятувати залізного велетня.


Рейтинг MPAA: PG - рекомендується присутність батьків
Вікова категорія: 6+

Тривалість: 01:29:58 [Signature Edition]
Якість: 720p
Відео:
кодек:
розмір кадру: 1280 х 536
бітрейт: 3700 Кбіт/с

Аудіо # 1:
мова: українська
переклад: двоголосий закадровий | Студія 1+1
кодек: 2.0
бітрейт: 192 Кбіт/с
ролі озвучили: Максим Кондратюк і Олена Узлюк
примітка: Ця версія, Signature Edition, відрізняється від попередньої, що транслювалась по ТБ і містить два неозвучені епізоди, на них є форсовані субтитри (00:15:50 - 00:16:29, 00:54:42 - 00:56:12)

Аудіо # 2:
мова: англійська
переклад: оригінал
кодек: 5.1
бітрейт: 640 Кбіт/с

Субтитри #1:
мова: українська (форсовані) - на написи та два неозвучених епізоди
тип: програмні (м'які)
формат: *.srt
примітка: переклад igor911

Субтитри #2-3:
мова: англійська (повні, SDH)
тип: програмні (м'які)
формат: *.srt

Збережено оригінальні розділи, як на Blu-ray.
Info
Код:
Complete name               : The Iron Giant (1999) (Signature Edition) [Ukr,Eng sub.Eng] 720p [Hurtom].
Format                      :
Format version              : Version 4 / Version 2
File size                   : 2.85 GiB
Duration                    : 1 h 29 min
Overall bit rate            : 4 534 kb/s
Movie name                  : Залізний велетень / The Iron Giant (1999) [Signature Edition] [Ukr,Eng sub.Eng] 720p [Hurtom-igor911]
Writing library             : libebml v1.3.4 + libmatroska v1.4.5
Cover                       : Yes
Attachments                 : cover.jpg

Video
ID                          : 1
Format                      : AVC
Format/Info                 : Advanced Video Codec
Format profile              : [email protected]
Format settings, CABAC      : Yes
Format settings, ReFrames   : 5 frames
Codec ID                    : V_MPEG4/ISO/AVC
Duration                    : 1 h 29 min
Bit rate                    : 3 700 kb/s
Width                       : 1 280 pixels
Height                      : 536 pixels
Display aspect ratio        : 2.40:1
Frame rate mode             : Constant
Frame rate                  : 23.976 (24000/1001) FPS
Color space                 : YUV
Chroma subsampling          : 4:2:0
Bit depth                   : 8 bits
Scan type                   : Progressive
Bits/(Pixel*Frame)          : 0.225
Stream size                 : 2.32 GiB (82%)
Title                       : Залізний велетень / The Iron Giant: Signature Edition (1999) 720p [AMIABLE]
Writing library             : core 148 r2705 3f5ed56
Encoding settings           : cabac=1 / ref=5 / deblock=1:-3:-3 / analyse=0x3:0x113 / me=umh / subme=8 / psy=1 / psy_rd=1.10:0.00 / mixed_ref=1 / me_range=16 / chroma_me=1 / trellis=1 / 8x8dct=1 / cqm=0 / deadzone=21,11 / fast_pskip=1 / chroma_qp_offset=-2 / threads=12 / lookahead_threads=2 / sliced_threads=0 / nr=0 / decimate=1 / interlaced=0 / bluray_compat=0 / constrained_intra=0 / bframes=3 / b_pyramid=2 / b_adapt=2 / b_bias=0 / direct=3 / weightb=1 / open_gop=0 / weightp=2 / keyint=240 / keyint_min=24 / scenecut=40 / intra_refresh=0 / rc_lookahead=50 / rc=2pass / mbtree=1 / bitrate=3700 / ratetol=1.0 / qcomp=0.60 / qpmin=0 / qpmax=69 / qpstep=4 / cplxblur=20.0 / qblur=0.5 / ip_ratio=1.40 / aq=3:0.70
Language                    : English
Default                     : Yes
Forced                      : No

Audio #1
ID                          : 2
Format                      : AC-3
Format/Info                 : Audio Coding 3
Mode extension              : CM (complete main)
Format settings, Endianness : Big
Codec ID                    : A_AC3
Duration                    : 1 h 29 min
Bit rate mode               : Constant
Bit rate                    : 192 kb/s
Channel(s)                  : 2 channels
Channel positions           : Front: L R
Sampling rate               : 48.0 kHz
Frame rate                  : 31.250 FPS (1536 spf)
Compression mode            : Lossy
Stream size                 : 124 MiB (4%)
Title                       : DVO [1+1] 2.0 192 kbps [HDClub,Hurtom]
Language                    : Ukrainian
Default                     : Yes
Forced                      : No

Audio #2
ID                          : 3
Format                      : AC-3
Format/Info                 : Audio Coding 3
Mode extension              : CM (complete main)
Format settings, Endianness : Big
Codec ID                    : A_AC3
Duration                    : 1 h 29 min
Bit rate mode               : Constant
Bit rate                    : 640 kb/s
Channel(s)                  : 6 channels
Channel positions           : Front: L C R, Side: L R, LFE
Sampling rate               : 48.0 kHz
Frame rate                  : 31.250 FPS (1536 spf)
Compression mode            : Lossy
Stream size                 : 412 MiB (14%)
Title                       : Original, 5.1 640 Kbps
Language                    : English
Default                     : No
Forced                      : No

Text #1
ID                          : 4
Format                      : UTF-8
Codec ID                    : S_TEXT/UTF8
Codec ID/Info               : UTF-8 Plain Text
Duration                    : 1 h 20 min
Bit rate                    : 2 b/s
Count of elements           : 27
Stream size                 : 1.49 KiB (0%)
Title                       : Ukr Forced [Hurtom-igor911]
Language                    : Ukrainian
Default                     : Yes
Forced                      : Yes

Text #2
ID                          : 5
Format                      : UTF-8
Codec ID                    : S_TEXT/UTF8
Codec ID/Info               : UTF-8 Plain Text
Duration                    : 1 h 28 min
Bit rate                    : 47 b/s
Count of elements           : 1002
Stream size                 : 31.1 KiB (0%)
Title                       : Eng full
Language                    : English
Default                     : No
Forced                      : No

Text #3
ID                          : 6
Format                      : UTF-8
Codec ID                    : S_TEXT/UTF8
Codec ID/Info               : UTF-8 Plain Text
Duration                    : 1 h 29 min
Bit rate                    : 56 b/s
Count of elements           : 1258
Stream size                 : 37.1 KiB (0%)
Title                       : Eng SDH
Language                    : English
Default                     : No
Forced                      : No

Menu
00:00:00.000                : en:00:00:00.000
00:02:26.897                : en:00:02:26.897
00:06:11.538                : en:00:06:11.538
00:08:58.455                : en:00:08:58.455
00:10:31.339                : en:00:10:31.339
00:12:47.558                : en:00:12:47.558
00:14:53.935                : en:00:14:53.935
00:17:02.146                : en:00:17:02.146
00:18:55.301                : en:00:18:55.301
00:21:14.648                : en:00:21:14.648
00:24:31.929                : en:00:24:31.929
00:26:25.751                : en:00:26:25.751
00:28:33.712                : en:00:28:33.712
00:30:35.292                : en:00:30:35.292
00:32:58.226                : en:00:32:58.226
00:34:20.642                : en:00:34:20.642
00:36:49.958                : en:00:36:49.958
00:38:32.435                : en:00:38:32.435
00:41:00.958                : en:00:41:00.958
00:44:43.055                : en:00:44:43.055
00:46:29.662                : en:00:46:29.662
00:48:46.215                : en:00:48:46.215
00:51:11.652                : en:00:51:11.652
00:53:11.355                : en:00:53:11.355
00:56:07.322                : en:00:56:07.322
01:00:34.089                : en:01:00:34.089
01:03:30.473                : en:01:03:30.473
01:05:45.400                : en:01:05:45.400
01:07:39.097                : en:01:07:39.097
01:11:06.304                : en:01:11:06.304
01:12:22.213                : en:01:12:22.213
01:16:03.350                : en:01:16:03.350
01:18:43.719                : en:01:18:43.719
01:21:31.470                : en:01:21:31.470
Скріншоти
будуть пізніше
Джерело: & &
Подяка HDClub'у за синхронізацію української доріжки під блурей, а п.DanyZemlyanoy за українізований постер.
Особиста оцінка: 10 - рекомендую всім дітям та їх батькам
ЗАЛИШАЙТЕСЬ ЯКОМОГА ДОВШЕ НА РОЗДАЧІ!
ЗАВАНТАЖИВ САМ - ДАЙ ЗАВАНТАЖИТИ ІНШИМ


Срібний реліз (на рейтинг впливає 50% завантаженого)
 Трекер:    Зареєстрований   

Завантажити / скачати мультфільм українською



відео для новачків



 Зареєстрований:   2016-09-18 18:13
 Розмір:   2.85 GB 
 Оцінка мультфільму:   6.2/10 (Голосів: 24)
   
Anonymous 







2016-09-18 18:14  
1080p та Remux
Wizard_Harry 
Свій


З нами з: 11.10.13
Востаннє: 23.08.17
Повідомлень: 112

2016-09-19 19:50  
Дякую. Чудовий мультфільм
Форкуш 
VIP


З нами з: 03.02.10
Востаннє: 24.08.17
Повідомлень: 1834

2016-09-20 21:37  
Прекрасний мульт.
zdlr 
Частий відвідувач


З нами з: 07.12.12
Востаннє: 23.08.17
Повідомлень: 28

2016-09-30 13:04  
Кльовий мультик!
Ваш часовий пояс: GMT + 2 Години

Нова тема   Відповісти