Ретчет і Кланк: галактичні рейнджери / Ratchet & Clank (2016) 1080p 3D [HalfOverUnder] Ukr/Eng

Нові коментарі

Нова тема   Відповісти
Автор Повідомлення
-VipeR- 
VIP


З нами з: 17.07.08
Востаннє: 23.08.17
Повідомлень: 289

2016-09-17 10:31  
Ретчет і Кланк: галактичні рейнджери / Ratchet & Clank (2016) 1080p 3D [HalfOverUnder] Ukr/Eng

Ретчет і Кланк: галактичні рейнджери / Ratchet & Clank (2016) 1080p 3D [HalfOverUnder] Ukr/Eng


Жанр: мультфільм, фантастика, бойовик, комедія, пригоди
Країна: США



Кінокомпанія: Gramercy Pictures (I), Rainmaker Entertainment, Film Financial Services
Режисер: Джеріка Кліленд, Кевін Манро
Актори: Джеймс Арнольд Тейл, Девід Кей, Джим Уорд, Сильвестр Сталлоне, Белла Торн, Розаріо Доусон

Сюжет:
Усесвіт наповнений безліччю планет, і на кожній із них живуть унікальні істоти. Планета Велдін колись була заселена ломбаксами – милими звірятками з жовтою шерстю, гострими вухами та лев’ячим хвостом. Ретчет – останній із ломбаксов. До нього на планету випадково потрапляє маленький робот Кланк. Коли його збирали, сталася помилка, і він став не бездумним громилом, а добрим та думаючим. Кланк ділиться з Ретчетом таємною інформацією про те, що Директор Дрек, створювач усіляких роботів, планує підривати всі планети у Всесвіті. Нові друзі готові протистояти злу і беруться за порятунок світу.


Тривалість: 01:34:05
Якість: 1080p 3D [HalfOverUnder] (ash61)
Відео:
кодек:
розмір кадру: 1920 х 1080
бітрейт: 7 195 кб/с

Аудіо # 1:
мова: українська
переклад: професійний дубльований edit by ash61
кодек: 2.0
бітрейт: 192 кб/с

Аудіо # 2:
мова: англійська
переклад: оригінал
кодек: 5.1
бітрейт: 640 кб/с
Info
Код:
General
Unique ID                      : 173707507546289326690161888166789066378 (0x82AED95A58AF48579991D2250F152E8A)
Complete name                  : D:\3D\Мультики\Ratchet & Clank (2016) 1080p 3D [HalfOverUnder] [Ukr,Eng].
Format                         :
Format version                 : Version 4 / Version 2
File size                      : 5.28 GiB
Duration                       : 1h 34mn
Overall bit rate               : 8 029 Kbps
Movie name                     : Ретчет і Кланк: галактичні рейнджери  / Ratchet & Clank (2016) у 3D
Encoded date                   : UTC 2016-09-17 07:12:13
Writing application            : mkvmerge v8.8.0 ('Wind at my back') 64bit
Writing library                : libebml v1.3.3 + libmatroska v1.4.4
Cover                          : Yes
Attachments                    : cover.jpeg

Video
ID                             : 1
Format                         : AVC
Format/Info                    : Advanced Video Codec
Format profile                 : [email protected]
Format settings, CABAC         : Yes
Format settings, ReFrames      : 4 frames
Codec ID                       : V_MPEG4/ISO/AVC
Duration                       : 1h 34mn
Bit rate                       : 7 195 Kbps
Width                          : 1 920 pixels
Height                         : 1 080 pixels
Display aspect ratio           : 16:9
Frame rate mode                : Constant
Frame rate                     : 23.976 (24000/1001) fps
Color space                    : YUV
Chroma subsampling             : 4:2:0
Bit depth                      : 8 bits
Scan type                      : Progressive
Bits/(Pixel*Frame)             : 0.145
Stream size                    : 4.73 GiB (90%)
Title                          : by Ash61 (from BD 3D Fre)
Writing library                : core 146 r2538 121396c
Encoding settings              : cabac=1 / ref=4 / deblock=1:-3:-3 / analyse=0x3:0x113 / me=umh / subme=10 / psy=1 / psy_rd=1.00:0.00 / mixed_ref=1 / me_range=32 / chroma_me=1 / trellis=2 / 8x8dct=1 / cqm=0 / deadzone=21,11 / fast_pskip=1 / chroma_qp_offset=-2 / threads=12 / lookahead_threads=3 / sliced_threads=0 / nr=0 / decimate=1 / interlaced=0 / bluray_compat=0 / constrained_intra=0 / bframes=14 / b_pyramid=2 / b_adapt=2 / b_bias=0 / direct=3 / weightb=1 / open_gop=0 / weightp=2 / keyint=250 / keyint_min=23 / scenecut=40 / intra_refresh=0 / rc_lookahead=60 / rc=crf / mbtree=1 / crf=15.5 / qcomp=0.70 / qpmin=0 / qpmax=69 / qpstep=4 / vbv_maxrate=40000 / vbv_bufsize=30000 / crf_max=0.0 / nal_hrd=none / filler=0 / frame-packing=4 / ip_ratio=1.40 / aq=1:0.70
Language                       : English
Default                        : Yes
Forced                         : No

Audio #1
ID                             : 2
Format                         : AC-3
Format/Info                    : Audio Coding 3
Mode extension                 : CM (complete main)
Format settings, Endianness    : Big
Codec ID                       : A_AC3
Duration                       : 1h 33mn
Bit rate mode                  : Constant
Bit rate                       : 192 Kbps
Channel(s)                     : 2 channels
Channel positions              : Front: L R
Sampling rate                  : 48.0 KHz
Frame rate                     : 31.250 fps (1536 spf)
Compression mode               : Lossy
Stream size                    : 129 MiB (2%)
Title                          : Дубляж - iTunes [Edit Ash61]
Language                       : Ukrainian
Default                        : No
Forced                         : No

Audio #2
ID                             : 3
Format                         : AC-3
Format/Info                    : Audio Coding 3
Mode extension                 : CM (complete main)
Format settings, Endianness    : Big
Codec ID                       : A_AC3
Duration                       : 1h 34mn
Bit rate mode                  : Constant
Bit rate                       : 640 Kbps
Channel(s)                     : 6 channels
Channel positions              : Front: L C R, Side: L R, LFE
Sampling rate                  : 48.0 KHz
Frame rate                     : 31.250 fps (1536 spf)
Compression mode               : Lossy
Stream size                    : 431 MiB (8%)
Title                          : Original - BD 3D Fre
Language                       : English
Default                        : No
Forced                         : No

Menu
00:00:00.000                   : : 1
00:05:50.350                   : : 2
00:17:16.202                   : : 3
00:26:05.689                   : : 4
00:36:33.316                   : : 5
00:43:46.624                   : : 6
00:50:07.755                   : : 7
00:56:50.407                   : : 8
01:02:47.347                   : : 9
01:09:23.284                   : : 10
01:18:13.188                   : : 11
01:23:10.194                   : : 12
Скріншоти





Джерело: &
Особиста оцінка: 0 - не дивився


 Трекер:    Зареєстрований   

Завантажити / скачати мультфільм українською



відео для новачків



 Зареєстрований:   2016-09-17 10:31
 Розмір:   5.28 GB 
 Оцінка мультфільму:   10/10 (Голосів: 2)
   
11FrYkT 
Модератор відео


З нами з: 20.02.11
Востаннє: 23.08.17
Повідомлень: 3810

2016-09-17 13:36  
-VipeR- , тут не тюнс бо впродажі нашої доріжки немає
-VipeR- 
VIP


З нами з: 17.07.08
Востаннє: 23.08.17
Повідомлень: 289

2016-09-17 13:59  
11FrYkT
можливо, але й не доріжка від AngryBirdsUA , бо я пробував її прикрутити і там був страшний розсинхрон з середини фільму.

Ваш часовий пояс: GMT + 2 Години

Нова тема   Відповісти