Барбі та потаємні двері / Barbie and the Secret Door (2014) Remux 1080p Ukr/Eng | Sub Eng

Нові коментарі

Нова тема   Відповісти
Автор Повідомлення
Anonymous 







2016-09-15 12:20  
Барбі та потаємні двері / Barbie and the Secret Door (2014) Remux Ukr/Eng | Sub Eng

Барбі та потаємні двері / Barbie and the Secret Door (2014) Remux 1080p Ukr/Eng | Sub Eng


Жанр: анімація, мюзикл, казка, сімейний, дитячий
Країна: США



Кінокомпанія: Mattel Playground Productions
Режисер: Карен Дж. Ллойд / Karen J. Lloyd
Ролі озвучили: Келлі Шерідан, Ешлі Болл, Шанелль Пелосі, Табіта Сент-Джермейн, Еллі Кінг, Крістофер Гейз, Джонатан Холмс, Брітт Ірвін, Майкл Дейнджерфілд, Макензі Грей

Сюжет:
Прекрасна принцеса Алекса не любила виконувати королівські обов'язки, але обожнювала читати книги і слухати спів птахів. Одного разу в саду вона виявила потаємні двері і, відкривши їх, потрапила у чарівний світ, населений казковими істотами. Тут вона подружилася з принцесою і русалкою, які розповіли Алексі про юну злу правительку, яка має намір заволодіти всією магією в королівстві і позбавити своїх підданих прав. Добродушна принцеса погодилася допомогти своїм новим подругам: разом вони спробують встати на захист чарівного світу і відновити у ньому гармонію ...


Тривалість: 01:20:51
Якість: Remux
Відео:
кодек:
розмір кадру: 1920 х 1080
бітрейт: 27,1 Мбіт/с

Аудіо # 1:
мова: українська
переклад: професійний дубльований
кодек: 2.0
бітрейт: 192 Кбіт/с
примітка #1: телеканал ТЕТ не озвучував (і не субтитрував !!???) пісні у мюзиклі, на них зроблено форсовані субитри
примітка #2: на відміну від релізу Arsenfpu тут доріжка повна, тривалість 01:20:51, в т.ч. є звук на останні 4 хв. пісень під час титрів

Аудіо # 2:
мова: англійська
переклад: оригінал
кодек: -HD MA 5.1
бітрейт: 2213 Кбіт/с

Субтитри #1:
мова: українська (форсовані - на пісні та фразу наприкінці титрів)
тип: програмні (м'які)
формат: *.srt
переклад з оригіналу: п.Варшавська, igor911

Субтитри #2-3:
мова: англійська (повні, SDH)
тип: програмні (м'які)
формат: *.srt

Збережено оригінальні розділи, як на Blu-ray.
Info
Код:
Complete name               : Barbie and the Secret Door (2014) [Ukr,Eng sub.Eng] Remux 1080p [Hurtom].
Format                      :
Format version              : Version 4 / Version 2
File size                   : 16.7 GiB
Duration                    : 1 h 20 min
Overall bit rate mode       : Variable
Overall bit rate            : 29.5 Mb/s
Movie name                  : Барбі та потаємні двері / Barbie and the Secret Door (2014) [Ukr,Eng sub.Eng] Remux 1080p [Hurtom-igor911]
Encoded date                : UTC 2016-09-14 05:41:26
Writing application         : mkvmerge v9.4.2 ('So High') 64bit
Writing library             : libebml v1.3.4 + libmatroska v1.4.5
Cover                       : Yes
Attachments                 : cover.jpg

Video
ID                          : 1
Format                      : AVC
Format/Info                 : Advanced Video Codec
Format profile              : [email protected]
Format settings, CABAC      : Yes
Format settings, ReFrames   : 2 frames
Codec ID                    : V_MPEG4/ISO/AVC
Duration                    : 1 h 20 min
Bit rate mode               : Variable
Bit rate                    : 27.1 Mb/s
Width                       : 1 920 pixels
Height                      : 1 080 pixels
Display aspect ratio        : 16:9
Frame rate mode             : Constant
Frame rate                  : 23.976 (24000/1001) FPS
Color space                 : YUV
Chroma subsampling          : 4:2:0
Bit depth                   : 8 bits
Scan type                   : Progressive
Bits/(Pixel*Frame)          : 0.545
Stream size                 : 15.3 GiB (92%)
Title                       : Барбі та потаємні двері / Barbie and the Secret Door (2014) Remux 1080p [HDClub]
Language                    : English
Default                     : Yes
Forced                      : No

Audio #1
ID                          : 2
Format                      : AC-3
Format/Info                 : Audio Coding 3
Mode extension              : CM (complete main)
Format settings, Endianness : Big
Codec ID                    : A_AC3
Duration                    : 1 h 20 min
Bit rate mode               : Constant
Bit rate                    : 192 kb/s
Channel(s)                  : 2 channels
Channel positions           : Front: L R
Sampling rate               : 48.0 kHz
Frame rate                  : 31.250 FPS (1536 spf)
Compression mode            : Lossy
Stream size                 : 111 MiB (1%)
Title                       : Dub [TET] 2.0 192 kbps [Hurtom-Arsenfpu,Neytreenor]
Language                    : Ukrainian
Default                     : Yes
Forced                      : No

Audio #2
ID                          : 3
Format                      :
Format/Info                 : Digital Theater Systems
Format profile              : MA / Core
Mode                        : 16
Format settings, Endianness : Big
Codec ID                    : A_DTS
Duration                    : 1 h 20 min
Bit rate mode               : Variable / Constant
Bit rate                    : 2 213 kb/s / 1 509 kb/s
Channel(s)                  : 6 channels
Channel positions           : Front: L C R, Side: L R, LFE
Sampling rate               : 48.0 kHz
Frame rate                  : 93.750 FPS (512 spf)
Bit depth                   : 16 bits
Compression mode            : Lossless / Lossy
Stream size                 : 1.25 GiB (7%)
Title                       : Original, -HD MA 5.1 2213 Kbps
Language                    : English
Default                     : No
Forced                      : No

Text #1
ID                          : 4
Format                      : UTF-8
Codec ID                    : S_TEXT/UTF8
Codec ID/Info               : UTF-8 Plain Text
Duration                    : 1 h 18 min
Bit rate                    : 22 b/s
Count of elements           : 298
Stream size                 : 12.8 KiB (0%)
Title                       : Ukr forced [Hurtom-Варшавська,igor911]
Language                    : Ukrainian
Default                     : Yes
Forced                      : Yes

Text #2
ID                          : 5
Format                      : UTF-8
Codec ID                    : S_TEXT/UTF8
Codec ID/Info               : UTF-8 Plain Text
Duration                    : 1 h 19 min
Bit rate                    : 48 b/s
Count of elements           : 1037
Stream size                 : 28.1 KiB (0%)
Title                       : Eng full
Language                    : English
Default                     : No
Forced                      : No

Text #3
ID                          : 6
Format                      : UTF-8
Codec ID                    : S_TEXT/UTF8
Codec ID/Info               : UTF-8 Plain Text
Duration                    : 1 h 19 min
Bit rate                    : 55 b/s
Count of elements           : 1268
Stream size                 : 32.2 KiB (0%)
Title                       : Eng SDH
Language                    : English
Default                     : No
Forced                      : No

Menu
00:00:00.000                : en:Chapter 1
00:05:19.569                : en:Chapter 2
00:10:43.643                : en:Chapter 3
00:16:01.544                : en:Chapter 4
00:21:38.130                : en:Chapter 5
00:28:24.369                : en:Chapter 6
00:31:49.491                : en:Chapter 7
00:35:10.608                : en:Chapter 8
00:42:33.509                : en:Chapter 9
00:52:11.128                : en:Chapter 10
01:04:01.129                : en:Chapter 11
01:13:05.881                : en:Chapter 12


Джерела та подяки: &
Запис української доріжки з ТБ п.Neytreenor, зведення звуку - igor911, українські субтитри: п.Варшавська - переклад, igor911 - організація, переклад, редагування.





ЗАЛИШАЙТЕСЬ ЯКОМОГА ДОВШЕ НА РОЗДАЧІ!
СКАЧАВ САМ - ДАЙ СКАЧАТИ ІНШИМ


Золотий реліз (завантажене не впливає на рейтинг)
 Трекер:    Зареєстрований   

Завантажити / скачати мультфільм українською



відео для новачків



 Зареєстрований:   2016-09-15 12:20
 Розмір:   16.68 GB 
 Оцінка мультфільму:   3.1/10 (Голосів: 14)
   
Anonymous 







2016-09-15 12:33  
Роздаю два тижні, потім видалю файл у себе.
Ваш часовий пояс: GMT + 2 Години

Нова тема   Відповісти