Барбі: Перлинна Принцеса / Barbie: The Pearl Princess (2014) 720p Ukr/Eng | Sub Eng

Нові коментарі

Нова тема   Відповісти
Автор Повідомлення
Anonymous 







2016-09-05 19:28  
Барбі: Перлинна Принцеса / Barbie: The Pearl Princess (2014) 720p Ukr/Eng | Sub Eng

Барбі: Перлинна Принцеса / Barbie: The Pearl Princess (2014) 720p Ukr/Eng | Sub Eng


Жанр: анімація, казка, сімейний
Країна: США



Кінокомпанія: Barbie Entertainment, Rainmaker Entertainment
Режисер: Ізекіль Нортон / Ezekiel Norton
Актори: Келлі Шерідан, Кейті Краун, Ребекка Шойчет, Тріш Паттендон, Джон Новак, Саймон Хілл, Пітер Нью, Кетлін Барр, Патрік Гілмор, Луїс Чірільо, Джеймс Хігучі

Сюжет:
Пригоди принцеси-русалки у чарівному підводному царстві. Ця історія про прекрасну русалку Луміну, яку виховує тітка. Луміна має унікальний дар - вона може керувати перлинами, і вона використовує цю здатність, щоб робити гарні зачіски. Коли Луміна дізнається, що в королівському палаці відбудеться бал, вона мріє потрапити на нього, щоб подивитися на життя короля та челяді. Однак тітка суворо забороняє своїй вихованці відвідувати бал. Не дослухавшись до порад тітки, русалонька зі своєю кращою подругою - морським коником відправляються у палац. Під час балу придворний генерал спробує захопити владу над підводним царством, але чудова сила Луміни не дасть здійснитися злу!



Вікова категорія: 0+

Тривалість: 01:13:35
Якість: 720p [власний ріп - igor911]
Відео:
кодек:
розмір кадру: 1280 х 720
бітрейт: 3225 Кбіт/с [crf=18]

Аудіо # 1:
мова: українська
переклад: професійний дубльований
кодек: 2.0
бітрейт: 192 Кбіт/с

Аудіо # 2:
мова: англійська
переклад: оригінал
кодек: 5.1
бітрейт: 640 Кбіт/с

Субтитри # 1:
мова: українська (форсовані, на пісню та фразу наприкінці фінальних титрів)
тип: програмні (м'які)
формат: *.srt
примітка: переклад з телетрансляції ТЕТ, обробка, редакція та таймінг - igor911

Субтитри #2-3:
мова: англійська (повні, SDH)
тип: програмні (м'які)
формат: *.srt

Збережено оригінальні розділи, як на Blu-ray.
Info та log
Код:
Complete name               : Barbie. The Pearl Princess (2014) [Ukr,Eng sub.Eng] 720p [Hurtom].
Format                      :
Format version              : Version 4 / Version 2
File size                   : 2.09 GiB
Duration                    : 1 h 13 min
Overall bit rate            : 4 060 kb/s
Movie name                  : Барбі: Перлинна Принцеса / Barbie: The Pearl Princess (2014) [Ukr,Eng sub.Eng] 720p [Hurtom-igor911]
Writing library             : libebml v1.3.4 + libmatroska v1.4.5
Cover                       : Yes
Attachments                 : x264log.txt / cover.jpg

Video
ID                          : 1
Format                      : AVC
Format/Info                 : Advanced Video Codec
Format profile              : [email protected]
Format settings, CABAC      : Yes
Format settings, ReFrames   : 9 frames
Codec ID                    : V_MPEG4/ISO/AVC
Duration                    : 1 h 13 min
Bit rate                    : 3 225 kb/s
Width                       : 1 280 pixels
Height                      : 720 pixels
Display aspect ratio        : 16:9
Frame rate mode             : Constant
Frame rate                  : 23.976 (24000/1001) FPS
Color space                 : YUV
Chroma subsampling          : 4:2:0
Bit depth                   : 8 bits
Scan type                   : Progressive
Bits/(Pixel*Frame)          : 0.146
Stream size                 : 1.66 GiB (79%)
Title                       : Барбі: Перлинна Принцеса / Barbie: The Pearl Princess (2014) 720p [Hurtom-igor911]
Writing library             : core 148 r2638 7599210
Encoding settings           : cabac=1 / ref=9 / deblock=1:1:1 / analyse=0x3:0x133 / me=umh / subme=11 / psy=1 / psy_rd=0.40:0.00 / mixed_ref=1 / me_range=32 / chroma_me=1 / trellis=2 / 8x8dct=1 / cqm=0 / deadzone=21,11 / fast_pskip=0 / chroma_qp_offset=-2 / threads=12 / lookahead_threads=3 / sliced_threads=0 / nr=0 / decimate=1 / interlaced=0 / bluray_compat=0 / constrained_intra=0 / bframes=12 / b_pyramid=2 / b_adapt=2 / b_bias=0 / direct=3 / weightb=1 / open_gop=0 / weightp=2 / keyint=230 / keyint_min=22 / scenecut=40 / intra_refresh=0 / rc_lookahead=60 / rc=crf / mbtree=1 / crf=18.0 / qcomp=0.60 / qpmin=0 / qpmax=69 / qpstep=4 / vbv_maxrate=62500 / vbv_bufsize=78125 / crf_max=0.0 / nal_hrd=none / filler=0 / ip_ratio=1.40 / aq=1:0.60
Language                    : English
Default                     : Yes
Forced                      : No

Audio #1
ID                          : 2
Format                      : AC-3
Format/Info                 : Audio Coding 3
Mode extension              : CM (complete main)
Format settings, Endianness : Big
Codec ID                    : A_AC3
Duration                    : 1 h 13 min
Bit rate mode               : Constant
Bit rate                    : 192 kb/s
Channel(s)                  : 2 channels
Channel positions           : Front: L R
Sampling rate               : 48.0 kHz
Frame rate                  : 31.250 FPS (1536 spf)
Compression mode            : Lossy
Stream size                 : 101 MiB (5%)
Title                       : Dub [TET] 2.0 192 kbps [Hurtom-Arsenfpu]
Language                    : Ukrainian
Default                     : Yes
Forced                      : No

Audio #2
ID                          : 3
Format                      : AC-3
Format/Info                 : Audio Coding 3
Mode extension              : CM (complete main)
Format settings, Endianness : Big
Codec ID                    : A_AC3
Duration                    : 1 h 13 min
Bit rate mode               : Constant
Bit rate                    : 640 kb/s
Channel(s)                  : 6 channels
Channel positions           : Front: L C R, Side: L R, LFE
Sampling rate               : 48.0 kHz
Frame rate                  : 31.250 FPS (1536 spf)
Compression mode            : Lossy
Stream size                 : 337 MiB (16%)
Title                       : Original, 5.1 640 Kbps
Language                    : English
Default                     : No
Forced                      : No

Text #1
ID                          : 4
Format                      : UTF-8
Codec ID                    : S_TEXT/UTF8
Codec ID/Info               : UTF-8 Plain Text
Duration                    : 31 min
Bit rate                    : 8 b/s
Count of elements           : 33
Stream size                 : 1.92 KiB (0%)
Title                       : Ukr Forced & Songs [Hurtom-igor911]
Language                    : Ukrainian
Default                     : Yes
Forced                      : Yes

Text #2
ID                          : 5
Format                      : UTF-8
Codec ID                    : S_TEXT/UTF8
Codec ID/Info               : UTF-8 Plain Text
Duration                    : 1 h 6 min
Bit rate                    : 56 b/s
Count of elements           : 993
Stream size                 : 27.2 KiB (0%)
Title                       : Eng full
Language                    : English
Default                     : No
Forced                      : No

Text #3
ID                          : 6
Format                      : UTF-8
Codec ID                    : S_TEXT/UTF8
Codec ID/Info               : UTF-8 Plain Text
Duration                    : 1 h 10 min
Bit rate                    : 62 b/s
Count of elements           : 1233
Stream size                 : 32.7 KiB (0%)
Title                       : Eng SDH
Language                    : English
Default                     : No
Forced                      : No

Menu
00:00:00.000                : en:Chapter 1
00:07:42.879                : en:Chapter 2
00:14:55.686                : en:Chapter 3
00:21:46.388                : en:Chapter 4
00:28:38.383                : en:Chapter 5
00:35:36.885                : en:Chapter 6
00:42:18.745                : en:Chapter 7
00:44:31.419                : en:Chapter 8
00:49:25.337                : en:Chapter 9
00:55:03.050                : en:Chapter 10
00:59:48.418                : en:Chapter 11
01:08:15.633                : en:Chapter 12

Код:
raw [info]: 1280x720p 1:1 @ 24000/1001 fps (cfr)
[info]: using SAR=1/1
[info]: using cpu capabilities: MMX2 SSE2Fast SSSE3 SSE4.2 AVX
[info]: profile High, level 4.1
[info]: frame I:818   Avg QP:15.94  size:122009
[info]: frame P:32290 Avg QP:20.58  size: 32355
[info]: frame B:72756 Avg QP:24.63  size:  8736
[info]: consecutive B-frames:  5.7%  9.3% 13.4% 51.4% 10.2%  8.1%  0.6%  0.6%  0.1%  0.1%  0.0%  0.1%  0.3%
[info]: mb I  I16..4:  7.9% 71.3% 20.8%
[info]: mb P  I16..4:  4.0% 16.2%  1.1%  P16..4: 31.0% 27.2%  8.5%  1.1%  0.1%    skip:10.7%
[info]: mb B  I16..4:  0.6%  2.1%  0.1%  B16..8: 28.0% 11.2%  2.1%  direct: 2.8%  skip:53.2%  L0:38.0% L1:45.9% BI:16.1%
[info]: 8x8 transform intra:75.8% inter:76.4%
[info]: direct mvs  spatial:99.8% temporal:0.2%
[info]: coded y,uvDC,uvAC intra: 57.8% 81.5% 50.8% inter: 14.5% 19.6% 8.3%
[info]: i16 v,h,dc,p:  9%  9%  5% 76%
[info]: i8 v,h,dc,ddl,ddr,vr,hd,vl,hu: 15% 11%  9%  7% 11% 12% 11% 12% 12%
[info]: i4 v,h,dc,ddl,ddr,vr,hd,vl,hu: 18% 11% 10%  6% 15% 13% 11%  8%  8%
[info]: i8c dc,h,v,p: 27% 21% 21% 31%
[info]: Weighted P-Frames: Y:1.9% UV:1.3%
[info]: ref P L0: 62.1% 14.6% 10.3%  4.3%  2.5%  2.2%  1.5%  1.2%  1.1%  0.2%  0.0%
[info]: ref B L0: 87.8%  5.6%  3.1%  1.1%  1.1%  0.7%  0.4%  0.2%
[info]: ref B L1: 96.2%  3.8%
[info]: kb/s:3225.28
encoded 105864 frames, 8.34 fps, 3225.28 kb/s
Constant Quality Mode: Quality 18 computed...
Video Bitrate Obtained (approximate): 3225 kbit/s
Порівняння скріншотів
Оригінал <----------> Ріп




Джерело:
Подяка п.Neytreenor за запис з ТБ та п.Arsenfpu за зведення укр.звуку





ЗАЛИШАЙТЕСЬ ЯКОМОГА ДОВШЕ НА РОЗДАЧІ!
СКАЧАВ САМ - ДАЙ СКАЧАТИ ІНШИМ


 Трекер:    Зареєстрований   

Завантажити / скачати мультфільм українською



відео для новачків



 Зареєстрований:   2016-09-09 14:47
 Розмір:   2.09 GB 
 Оцінка мультфільму:   4.4/10 (Голосів: 16)
   
Anonymous 







2016-09-05 19:50  
Також згодом буде реліз у 1080p та ремукс і субтитри до пісень - як виявилось ТЕТ пісні субтитрував.
Anonymous 







2016-09-09 14:50  
Реліз оновлено!
Додано українські форсовані субтитри до пісні Nevada Brandt - "Mermaid party" у мультфільмі

Ваш часовий пояс: GMT + 2 Години

Нова тема   Відповісти