Кіт у чоботях: Троє чортенят / Puss in Boots: The Three Diablos (2011) 720p 3xUkr/Eng | Sub Ukr/Eng

Нові коментарі

Нова тема   Відповісти
Автор Повідомлення
sergiyko.5 
VIP


З нами з: 25.02.16
Востаннє: 23.08.17
Повідомлень: 1007

2016-09-01 22:58  
Кіт у чоботях: Троє чортенят / Puss in Boots: The Three Diablos (2011) 720p 3xUkr/Eng | Sub Ukr/Eng

Кіт у чоботях: Троє чортенят / Puss in Boots: The Three Diablos (2011) 720p 3xUkr/Eng | Sub Ukr/Eng

Жанр: короткометражний анімаційний фільм
Країна: США
Кінокомпанія: DreamWorks Animation

Режисер: Раман Гуї
Актори: Антоніо Бандерас, Жілль Маріні, Шарлотта Ньюхаус, Кріс Міллер, Волт Дорн та інші

Сюжет:
Кіт у чоботях вирушає на пошук рубіна, вкраденого з корони принцеси горезвісним французьким злодієм Шепотом. Його супроводжують троє маленьких кошенят, три чортенятка. Кіт повинен приручити їх, перш ніж поставити під загрозу місію.




Тривалість: 00:13:05
Якість: 720p

Відео: кодек: розмір кадру: 1280 х 720 бітрейт: 5145 кб/с
Аудіо #1: мова: українська переклад: професійний дубльований кодек: 2.0 бітрейт: 192 кб/с
Аудіо #2: мова: українська переклад: багатоголосий закадровий кодек: 5.1 бітрейт: 448 кб/с M&M
Аудіо #3: мова: українська переклад: одноголосий закадровий кодек: 5.1 бітрейт: 448 кб/с UAMax (Ray)
Аудіо #4: мова: англійська переклад: оригінал кодек: 5.1 бітрейт: 448 кб/с
Субтитри #1: мова: українська тип: програмні (м'які) формат: *.srt
Субтитри #2: мова: англійська тип: програмні (м'які) формат: *.srt
Info
General
Unique ID : 172230563323769096533019735168893458181 (0x8192666171EC57E8A4B8F1D72BAE1705)
Complete name : E:\Torrents\Mult\DreamWorks\Puss in Boots. The Three Diablos.2011..720p.3xUkr.Eng.
Format :
Format version : Version 4 / Version 2
File size : 626 MiB
Duration : 13 min
Overall bit rate : 6 685 kb/s
Movie name : rip by sergiyko
Encoded date : UTC 2016-09-01 19:29:09
Writing application : mkvmerge v9.4.0 ('Knurl') 64bit
Writing library : libebml v1.3.4 + libmatroska v1.4.5
Cover : Yes
Attachments : cover.jpeg

Video
ID : 1
Format : AVC
Format/Info : Advanced Video Codec
Format profile : [email protected]
Format settings, CABAC : Yes
Format settings, ReFrames : 9 frames
Codec ID : V_MPEG4/ISO/AVC
Duration : 13 min
Bit rate : 5 145 kb/s
Width : 1 280 pixels
Height : 720 pixels
Display aspect ratio : 16:9
Frame rate mode : Constant
Frame rate : 23.976 (24000/1001) FPS
Color space : YUV
Chroma subsampling : 4:2:0
Bit depth : 8 bits
Scan type : Progressive
Bits/(Pixel*Frame) : 0.233
Stream size : 482 MiB (77%)
Title : Puss in Boots: The Three Diablos 2011
Writing library : core 120 r2164 da19765
Encoding settings : cabac=1 / ref=9 / deblock=1:-3:-3 / analyse=0x3:0x113 / me=tesa / subme=11 / psy=1 / psy_rd=0.80:0.00 / mixed_ref=1 / me_range=24 / chroma_me=1 / trellis=2 / 8x8dct=1 / cqm=0 / deadzone=21,11 / fast_pskip=0 / chroma_qp_offset=-2 / threads=6 / sliced_threads=0 / nr=0 / decimate=0 / interlaced=0 / bluray_compat=0 / constrained_intra=0 / bframes=7 / b_pyramid=2 / b_adapt=2 / b_bias=0 / direct=3 / weightb=1 / open_gop=0 / weightp=2 / keyint=250 / keyint_min=23 / scenecut=40 / intra_refresh=0 / rc_lookahead=60 / rc=crf / mbtree=0 / crf=16.0 / qcomp=0.60 / qpmin=0 / qpmax=69 / qpstep=4 / vbv_maxrate=38000 / vbv_bufsize=30000 / crf_max=0.0 / nal_hrd=none / ip_ratio=1.40 / pb_ratio=1.30 / aq=1:0.90
Language : English
Default : Yes
Forced : No
Color range : Limited
Color primaries : BT.709
Transfer characteristics : BT.709
Matrix coefficients : BT.709

Audio #1
ID : 2
Format :
Format/Info : Advanced Audio Codec
Format profile : LC
Codec ID : A_AAC
Duration : 13 min
Bit rate : 192 kb/s
Channel(s) : 2 channels
Channel positions : Front: L R
Sampling rate : 48.0 kHz
Frame rate : 46.875 FPS (1024 spf)
Compression mode : Lossy
Delay relative to video : 9 ms
Stream size : 18.0 MiB (3%)
Title : DUB 2.0ch 192kbps | ТЕТ |
Language : Ukrainian
Default : Yes
Forced : Yes

Audio #2
ID : 3
Format : AC-3
Format/Info : Audio Coding 3
Mode extension : CM (complete main)
Format settings, Endianness : Big
Codec ID : A_AC3
Duration : 13 min
Bit rate mode : Constant
Bit rate : 448 kb/s
Channel(s) : 6 channels
Channel positions : Front: L C R, Side: L R, LFE
Sampling rate : 48.0 kHz
Frame rate : 31.250 FPS (1536 spf)
Compression mode : Lossy
Stream size : 41.9 MiB (7%)
Title : MOV 5.1ch 448kbps | M&M
Language : Ukrainian
Default : No
Forced : No

Audio #3
ID : 4
Format : AC-3
Format/Info : Audio Coding 3
Mode extension : CM (complete main)
Format settings, Endianness : Big
Codec ID : A_AC3
Duration : 13 min
Bit rate mode : Constant
Bit rate : 448 kb/s
Channel(s) : 6 channels
Channel positions : Front: L C R, Side: L R, LFE
Sampling rate : 48.0 kHz
Frame rate : 31.250 FPS (1536 spf)
Compression mode : Lossy
Stream size : 41.9 MiB (7%)
Title : 5.1ch 448kbps | UAMax (Ray)
Language : Ukrainian
Default : No
Forced : No

Audio #4
ID : 5
Format : AC-3
Format/Info : Audio Coding 3
Mode extension : CM (complete main)
Format settings, Endianness : Big
Codec ID : A_AC3
Duration : 13 min
Bit rate mode : Constant
Bit rate : 448 kb/s
Channel(s) : 6 channels
Channel positions : Front: L C R, Side: L R, LFE
Sampling rate : 48.0 kHz
Frame rate : 31.250 FPS (1536 spf)
Compression mode : Lossy
Stream size : 41.9 MiB (7%)
Title : Original 5.1ch 448kbps
Language : English
Default : No
Forced : No

Text #1
ID : 6
Format : UTF-8
Codec ID : S_TEXT/UTF8
Codec ID/Info : UTF-8 Plain Text
Duration : 11 min
Bit rate : 71 b/s
Count of elements : 130
Stream size : 5.97 KiB (0%)
Language : Ukrainian
Default : No
Forced : No

Text #2
ID : 7
Format : UTF-8
Codec ID : S_TEXT/UTF8
Codec ID/Info : UTF-8 Plain Text
Duration : 11 min
Bit rate : 46 b/s
Count of elements : 128
Stream size : 3.91 KiB (0%)
Language : English
Default : No
Forced : No
Скріншоти:


Реліз: sergiyko


Золотий реліз (завантажене не впливає на рейтинг)
 Трекер:    Зареєстрований   

Завантажити / скачати мультфільм українською



відео для новачків



 Зареєстрований:   2016-09-01 22:58
 Розмір:   626 MB 
 Оцінка мультфільму:   10/10 (Голосів: 13)
   
trop 
Свій


З нами з: 25.04.16
Востаннє: 22.08.17
Повідомлень: 141

2016-09-01 23:14  
3 укр озвучки.... Чому вони не озвучують фільми чи мульти в яких немає укр озвучки...
igor911 
Відео Гуртом
Відео Гуртом


З нами з: 18.01.08
Востаннє: 24.08.17
Повідомлень: 7345

2016-09-01 23:55  
trop написано:
3 укр озвучки...

дві з них - любительські, мульт короткий і йому вже 5 років

Додано через 1 хвилину 15 секунд:

+ всі ведуться на мімімішні очиська

aaa4523 
VIP


З нами з: 26.07.13
Востаннє: 23.08.17
Повідомлень: 267

2016-09-02 09:12  
trop написано:
3 укр озвучки.... Чому вони не озвучують фільми чи мульти в яких немає укр озвучки...

А в той час якраз й небуло ніякої озвучки до цього мультфільму. Це ось тільки на початку цього року по ТЕТ показали.

Ваш часовий пояс: GMT + 2 Години

Нова тема   Відповісти