Великий бар'єрний риф з Девідом Аттенборо (Сезон 1) / Great Barrier Reef with David Attenborough (Season 1) (2015) 1080p Ukr/Eng | Sub Ukr/Eng

Нові коментарі

Нова тема   Відповісти
Автор Повідомлення
Logos71 
Новенький


З нами з: 01.05.13
Востаннє: 14.10.17
Повідомлень: 13

2016-08-30 21:59  
Великий бар'єрний риф з Девідом Аттенборо (Сезон 1) / Great Barrier Reef with David Attenborough (Season 1) (2015) 1080p Ukr/Eng | Sub Ukr/Eng


Жанр: документальний
Країна: Велика Британія



Кінокомпанія: BBC
Режисер: Майкл Девіс
Актори: Девід Аттенборо

Сюжет:
Девід Аттенборо відправляється до Великого Бар'єрного рифу. Підводний світ тут дивовижний, всю його красу можна побачити в рамках цього проекту від ВВС. Подорож захоплює дух. Зйомки продемонструють багатобарвність і багатовидове життя в дивовижному куточку.


Перелік епізодів:
1. Будівники / Builders
2. Гості Бар'єрного рифа / Visitors
3. Виживання / Survival



Тривалість: 3 x ~ 00:58:00
Якість:
Відео:
кодек:
розмір кадру: 1920 х 1080
бітрейт: ~9000 кб/с

Аудіо # 1:
мова: українська
переклад: одноголосий закадровий | Logos71
кодек: 5.1
бітрейт: 1509 кб/с

зразок озвучення

Аудіо # 2:
мова: англійська
переклад: оригінал
кодек: 5.1
бітрейт: 640 кб/с

Субтитри:
мова: українська
тип: програмні (м'які)
формат: *.srt

Субтитри:
мова: англійська
тип: програмні (м'які)
формат: *.srt
Info
General
Unique ID : 213179199067655853182187003476426353486 (0xA060D1FF367B6513B50D1C08FB5FEB4E)
Complete name : E:\Great Barrier Reef\Great Barrier Reef with David Attenborough (2015) 1080p [Ukr. Eng] [Sub Ukr. Eng] [Hurtom]\s01e02-Visitors (2015) 1080p [Ukr. Eng] [Sub Ukr. Eng] [Hurtom].
Format :
Format version : Version 4 / Version 2
File size : 4.59 GiB
Duration : 58 min 11 s
Overall bit rate : 11.3 Mb/s
Encoded date : UTC 2016-11-06 18:05:30
Writing application : mkvmerge v7.8.0 ('River Man') 32bit built on Apr 3 2015 12:11:22
Writing library : libebml v1.3.1 + libmatroska v1.4.2

Video
ID : 1
Format : AVC
Format/Info : Advanced Video Codec
Format profile : [email protected]
Format settings, CABAC : Yes
Format settings, ReFrames : 4 frames
Codec ID : V_MPEG4/ISO/AVC
Duration : 58 min 10 s
Bit rate : 9 134 kb/s
Width : 1 920 pixels
Height : 1 080 pixels
Display aspect ratio : 16:9
Frame rate mode : Constant
Frame rate : 25.000 FPS
Color space : YUV
Chroma subsampling : 4:2:0
Bit depth : 8 bits
Scan type : Progressive
Bits/(Pixel*Frame) : 0.176
Stream size : 3.71 GiB (81%)
Writing library : core 148 r2638 7599210
Encoding settings : cabac=1 / ref=4 / deblock=1:-1:-1 / analyse=0x3:0x133 / me=umh / subme=7 / psy=1 / psy_rd=1.00:0.00 / mixed_ref=1 / me_range=16 / chroma_me=1 / trellis=1 / 8x8dct=1 / cqm=0 / deadzone=21,11 / fast_pskip=0 / chroma_qp_offset=-2 / threads=6 / lookahead_threads=1 / sliced_threads=0 / nr=0 / decimate=1 / interlaced=0 / bluray_compat=0 / constrained_intra=0 / bframes=3 / b_pyramid=2 / b_adapt=2 / b_bias=0 / direct=3 / weightb=1 / open_gop=0 / weightp=2 / keyint=250 / keyint_min=25 / scenecut=40 / intra_refresh=0 / rc_lookahead=50 / rc=2pass / mbtree=1 / bitrate=9134 / ratetol=1.0 / qcomp=0.60 / qpmin=10 / qpmax=51 / qpstep=4 / cplxblur=20.0 / qblur=0.5 / vbv_maxrate=62500 / vbv_bufsize=78125 / nal_hrd=none / filler=0 / ip_ratio=1.40 / aq=1:1.00
Default : Yes
Forced : No

Audio #1
ID : 2
Format :
Format/Info : Digital Theater Systems
Mode : 16
Format settings, Endianness : Big
Codec ID : A_DTS
Duration : 58 min 11 s
Bit rate mode : Constant
Bit rate : 1 509 kb/s
Channel(s) : 6 channels
Channel positions : Front: L C R, Side: L R, LFE
Sampling rate : 48.0 kHz
Frame rate : 93.750 FPS (512 spf)
Bit depth : 24 bits
Compression mode : Lossy
Stream size : 628 MiB (13%)
Language : Ukrainian
Default : Yes
Forced : No

Audio #2
ID : 3
Format : AC-3
Format/Info : Audio Coding 3
Mode extension : CM (complete main)
Format settings, Endianness : Big
Codec ID : A_AC3
Duration : 58 min 11 s
Bit rate mode : Constant
Bit rate : 640 kb/s
Channel(s) : 6 channels
Channel positions : Front: L C R, Side: L R, LFE
Sampling rate : 48.0 kHz
Frame rate : 31.250 FPS (1536 spf)
Bit depth : 16 bits
Compression mode : Lossy
Stream size : 266 MiB (6%)
Language : English
Default : No
Forced : No

Text #1
ID : 4
Format : UTF-8
Codec ID : S_TEXT/UTF8
Codec ID/Info : UTF-8 Plain Text
Duration : 57 min 26 s
Bit rate : 128 b/s
Count of elements : 697
Stream size : 54.3 KiB (0%)
Language : Ukrainian
Default : Yes
Forced : No

Text #2
ID : 5
Format : UTF-8
Codec ID : S_TEXT/UTF8
Codec ID/Info : UTF-8 Plain Text
Duration : 57 min 22 s
Bit rate : 75 b/s
Count of elements : 695
Stream size : 31.9 KiB (0%)
Language : English
Default : No
Forced : No


Над релізом працювали:
Logos71 - озвучення
Hanway - монтаж звуку
Gelios - українізація постера

Джерело:


Авторський реліз (завантажувати можна без реєстрації)
 Трекер:    Зареєстрований   

Завантажити / скачати фільм українською



відео для новачків



 Зареєстрований:   2016-11-06 23:16
 Розмір:   13.76 GB 
 Оцінка фільму:   9.9/10 (Голосів: 23)
   
Gord-Art+ 
Новенький


З нами з: 04.08.15
Востаннє: 14.10.17
Повідомлень: 24

2016-09-26 22:53  
Дуже гарний, пізнавальний фільм! Озвучення на 10 балів, голос приємний і зміна інтонації добра. Одна з кращих одноголосок, які я чув. Щиро дякую за фільм.
Студія Hurtom 
Відео Гуртом - фільмокрай
Відео Гуртом - фільмокрай


З нами з: 16.01.15
Востаннє: 20.10.17
Повідомлень: 670

2016-10-22 03:14  
У словах, де остання буква "в" вимова наближена до ф. Прослухав перші 3 хвилини. Якість запису - добра. Голос теж.) Загалом, дякую. Будуть усі епізоди - поширю у фб. Ще було б чудово озвучити трейлер https://www.youtube.com/watch?v=7vbWs9h6Bic і попросити розмістити тут https://www.youtube.com/user/TrailersUA/about це допомогло б у популяризації.
AngryBirdsUA 
Свій


З нами з: 24.02.10
Востаннє: 19.10.17
Повідомлень: 3037

2016-11-06 23:29  
Торрент оновлено.
Тепер увесь сезон.

atthe 
Частий відвідувач


З нами з: 29.01.08
Востаннє: 12.10.17
Повідомлень: 36

2016-11-13 17:48  
Увесь сезон = круто, качаємо Happy
Ваш часовий пояс: GMT + 2 Години

Нова тема   Відповісти