Великий бар'єрний риф з Девідом Аттенборо (Сезон 1) / Great Barrier Reef with David Attenborough (Season 1) (2015) 720p Ukr/Eng

Нові коментарі

Нова тема   Відповісти
Автор Повідомлення
Logos71 
Новенький


З нами з: 01.05.13
Востаннє: 14.10.17
Повідомлень: 13

2016-08-30 21:59  
Великий бар'єрний риф з Девідом Аттенборо (Сезон 1) / Great Barrier Reef with David Attenborough (Season 1) (2015) 720p Ukr/Eng


Жанр: документальний
Країна: Велика Британія



Кінокомпанія: BBC
Режисер: Майкл Девіс
Актори: Девід Аттенборо

Сюжет:
Девід Аттенборо відправляється до Великого Бар'єрного рифу. Підводний світ тут дивовижний, всю його красу можна побачити в рамках цього проекту від ВВС. Подорож захоплює дух. Зйомки продемонструють багатобарвність і багатовидове життя в дивовижному куточку.


Перелік епізодів:
1. Будівники / Builders
2. Гості Бар'єрного рифа / Visitors
3. Виживання / Survival


Тривалість: 3 x ~ 00:58:00
Якість:
Відео:
кодек:
розмір кадру: 1280 х 720
бітрейт: 5000 кб/с

Аудіо # 1:
мова: українська
переклад: одноголосий закадровий | Logos71
кодек: 5.1
бітрейт: 448 кб/с

зразок озвучення

Аудіо # 2:
мова: англійська
переклад: оригінал
кодек: 5.1
бітрейт: 448 кб/с
Info
General
Unique ID : 252679056558675525832153963736477053287 (0xBE18375498A658B486A915B2A321B167)
Complete name : E:\Great Barrier Reef\Great Barrier Reef with David Attenborough (2015) 720p [Ukr. Eng] [Hurtom]\s01e01-Builders (2015) 720p [Ukr. Eng] [Hurtom].
Format :
Format version : Version 4 / Version 2
File size : 2.40 GiB
Duration : 58 min
Overall bit rate : 5 899 kb/s
Encoded date : UTC 2016-08-30 17:32:05
Writing application : mkvmerge v7.6.0 ('Garden of Dreams') 64bit built on Feb 8 2015 13:04:34
Writing library : libebml v1.3.1 + libmatroska v1.4.2

Video
ID : 1
Format : AVC
Format/Info : Advanced Video Codec
Format profile : [email protected]
Format settings, CABAC : Yes
Format settings, ReFrames : 10 frames
Codec ID : V_MPEG4/ISO/AVC
Duration : 58 min
Bit rate : 5 000 kb/s
Width : 1 280 pixels
Height : 720 pixels
Display aspect ratio : 16:9
Frame rate mode : Constant
Frame rate : 25.000 FPS
Color space : YUV
Chroma subsampling : 4:2:0
Bit depth : 8 bits
Scan type : Progressive
Bits/(Pixel*Frame) : 0.217
Stream size : 2.03 GiB (85%)
Writing library : core 130 r2273 b3065e6
Encoding settings : cabac=1 / ref=10 / deblock=1:-3:-3 / analyse=0x3:0x133 / me=umh / subme=10 / psy=1 / psy_rd=1.00:0.10 / mixed_ref=1 / me_range=48 / chroma_me=1 / trellis=2 / 8x8dct=1 / cqm=0 / deadzone=21,11 / fast_pskip=0 / chroma_qp_offset=-3 / threads=6 / lookahead_threads=1 / sliced_threads=0 / nr=0 / decimate=1 / interlaced=0 / bluray_compat=0 / constrained_intra=0 / bframes=7 / b_pyramid=2 / b_adapt=2 / b_bias=0 / direct=3 / weightb=1 / open_gop=0 / weightp=2 / keyint=250 / keyint_min=25 / scenecut=40 / intra_refresh=0 / rc_lookahead=40 / rc=2pass / mbtree=1 / bitrate=5000 / ratetol=1.0 / qcomp=0.60 / qpmin=10 / qpmax=51 / qpstep=4 / cplxblur=20.0 / qblur=0.5 / ip_ratio=1.40 / aq=1:1.00
Language : English
Default : Yes
Forced : No

Audio #1
ID : 2
Format : AC-3
Format/Info : Audio Coding 3
Mode extension : CM (complete main)
Format settings, Endianness : Big
Codec ID : A_AC3
Duration : 58 min
Bit rate mode : Constant
Bit rate : 448 kb/s
Channel(s) : 6 channels
Channel positions : Front: L C R, Side: L R, LFE
Sampling rate : 48.0 kHz
Frame rate : 31.250 FPS (1536 spf)
Compression mode : Lossy
Stream size : 186 MiB (8%)
Language : Ukrainian
Default : Yes
Forced : No

Audio #2
ID : 3
Format : AC-3
Format/Info : Audio Coding 3
Mode extension : CM (complete main)
Format settings, Endianness : Big
Codec ID : A_AC3
Duration : 58 min
Bit rate mode : Constant
Bit rate : 448 kb/s
Channel(s) : 6 channels
Channel positions : Front: L C R, Side: L R, LFE
Sampling rate : 48.0 kHz
Frame rate : 31.250 FPS (1536 spf)
Compression mode : Lossy
Stream size : 186 MiB (8%)
Language : English
Default : No
Forced : No


Над релізом працювали:
Logos71 - озвучення
Hanway - монтаж звуку
Gelios - українізація постера

Джерело:


Авторський реліз (завантажувати можна без реєстрації)
 Трекер:    Зареєстрований   

Завантажити / скачати фільм українською



відео для новачків



 Зареєстрований:   2016-11-06 23:16
 Розмір:   8.93 GB 
 Оцінка фільму:   10/10 (Голосів: 17)
   
AngryBirdsUA 
Свій


З нами з: 24.02.10
Востаннє: 18.10.17
Повідомлень: 3037

2016-11-06 23:57  
Торрент оновлено.
Тепер увесь сезон.

omordach 
Свій


З нами з: 31.10.09
Востаннє: 15.10.17
Повідомлень: 110

2017-02-02 20:15  
Серіал просто бомбезний! Якість зйомки вражеє. Аттенборо неперевершений.

Окреме дякую за оригінальну доріжку, хоча субтитри теж не завадили б (але знайти їх на сторонніх ресурсах не проблема).

Додано через 1 хвилину 50 секунд:

якби ще хтось на роздачу став Sad (1)

Ваш часовий пояс: GMT + 2 Години

Нова тема   Відповісти