Добрий динозавр / The Good Dinosaur (2015) 720p 60fps Ukr/Eng | Sub Eng

Нові коментарі

Нова тема   Відповісти
Автор Повідомлення
SilentBoss 
Частий відвідувач


З нами з: 19.01.11
Востаннє: 16.08.17
Повідомлень: 35

2016-08-27 19:48  
Добрий динозавр / The Good Dinosaur (2015) 720p 60fps Ukr/Eng | Sub Eng

Добрий динозавр / The Good Dinosaur (2015) 720p 60fps Ukr/Eng | Sub Eng


Жанр: анімація, комедія, пригоди, сімейний
Країна: США



Кінокомпанія: Walt Disney Pictures, Pixar Animation Studios
Режисер: Пітер Сон
Актори: Джеффрі Райт, Маркус Скрібнер, Реймонд Очоа, Джек Брайт, Пітер Сон, Стів Зан, Сем Елліотт...

Сюжет:
Тільки уявіть, як виглядала б наша планета, якби астероїд, що знищив динозаврів, пролетів повз? Вони б не вимерли і жили серед нас зараз. Апатозавр по імені Арло незграбний і боязкий, але має велике добре серце. Він заводить незвичайного друга - людську дитину, яку звуть Спот. Хлопчик дикуватий, але дуже розумний. І хоча ця дивна парочка не відразу стає товаришами, вони допомагають один одному. Під час подорожі по суворих і загадкових місцях, Арло вчиться протистояти своїм страхам і дізнається, на що він дійсно здатний. Спот і динозавр зустрінуться із різними тваринами на своєму шляху, але не всі будуть до них доброзичливі.


Тривалість: 01:33:50
Якість:
Відео:
кодек:
розмір кадру: 1280x536
бітрейт: 10,1 Мбіт/сек

Аудіо # 1:
мова: українська
переклад: професійний дубльований
кодек: 5.1
бітрейт: 1536 кб/с

Аудіо # 2:
мова: англійська
переклад: оригінал
кодек: 5.1
бітрейт: 448 кб/с

Субтитри (Full, SDH):
мова: англійська
тип: програмні (м'які)
формат: *.srt
Info
Format :
Format version : Version 4 / Version 2
File size : 8.05 GiB
Duration : 1h 33mn
Overall bit rate : 12.3 Mbps
Encoded date : UTC 2016-08-27 15:28:49
Writing application : mkvmerge v8.3.0 ('Over the Horizon') 64bit
Writing library : libebml v1.3.1 + libmatroska v1.4.2

Video
ID : 1
Format : AVC
Format/Info : Advanced Video Codec
Format profile : High@L4.1
Format settings, CABAC : Yes
Format settings, ReFrames : 6 frames
Codec ID : V_MPEG4/ISO/AVC
Duration : 1h 33mn
Bit rate : 10.3 Mbps
Width : 1 280 pixels
Height : 536 pixels
Display aspect ratio : 2.40:1
Frame rate mode : Constant
Frame rate : 59.940 (59940/1000) fps
Color space : YUV
Chroma subsampling : 4:2:0
Bit depth : 8 bits
Scan type : Progressive
Bits/(Pixel*Frame) : 0.251
Stream size : 6.76 GiB (84%)
Writing library : core 130 r2273 b3065e6
Encoding settings : cabac=1 / ref=6 / deblock=1:0:0 / analyse=0x3:0x133 / me=umh / subme=8 / psy=1 / psy_rd=1.00:0.15 / mixed_ref=1 / me_range=20 / chroma_me=1 / trellis=2 / 8x8dct=1 / cqm=0 / deadzone=21,11 / fast_pskip=0 / chroma_qp_offset=-3 / threads=6 / lookahead_threads=2 / sliced_threads=0 / nr=0 / decimate=0 / interlaced=0 / bluray_compat=0 / constrained_intra=0 / bframes=8 / b_pyramid=2 / b_adapt=2 / b_bias=0 / direct=1 / weightb=1 / open_gop=0 / weightp=2 / keyint=250 / keyint_min=25 / scenecut=40 / intra_refresh=0 / rc=crf / mbtree=0 / crf=17.0 / qcomp=0.63 / qpmin=10 / qpmax=51 / qpstep=4 / ip_ratio=1.40 / pb_ratio=1.30 / aq=2:1.20
Default : Yes
Forced : No

Audio #1
ID : 2
Format :
Format/Info : Digital Theater Systems
Mode : 16
Format settings, Endianness : Big
Codec ID : A_DTS
Duration : 1h 33mn
Bit rate mode : Constant
Bit rate : 1 509 Kbps
Channel(s) : 6 channels
Channel positions : Front: L C R, Side: L R, LFE
Sampling rate : 48.0 KHz
Frame rate : 93.750 fps (512 spf)
Bit depth : 24 bits
Compression mode : Lossy
Delay relative to video : 850ms
Stream size : 1 013 MiB (12%)
Title : 5.1 @ 1536 kbps
Language : Ukrainian
Default : Yes
Forced : Yes

Audio #2
ID : 3
Format : AC-3
Format/Info : Audio Coding 3
Mode extension : CM (complete main)
Format settings, Endianness : Big
Codec ID : A_AC3
Duration : 1h 33mn
Bit rate mode : Constant
Bit rate : 448 Kbps
Channel(s) : 6 channels
Channel positions : Front: L C R, Side: L R, LFE
Sampling rate : 48.0 KHz
Frame rate : 31.250 fps (1536 spf)
Compression mode : Lossy
Stream size : 300 MiB (4%)
Title : 5.1 @ 448 kbps
Language : English
Default : No
Forced : No

Text #1
ID : 4
Format : UTF-8
Codec ID : S_TEXT/UTF8
Codec ID/Info : UTF-8 Plain Text
Duration : 1h 21mn
Bit rate : 23 bps
Count of elements : 477
Stream size : 14.1 KiB (0%)
Title : Full
Language : English
Default : No
Forced : No

Text #2
ID : 5
Format : UTF-8
Codec ID : S_TEXT/UTF8
Codec ID/Info : UTF-8 Plain Text
Duration : 1h 23mn
Bit rate : 32 bps
Count of elements : 885
Stream size : 20.0 KiB (0%)
Title : SDH
Language : English
Default : No
Forced : No
Скріншоти
Джерело: &
Звук та опис:Реліз 11FrYkT

Особиста оцінка: 10 - без зайвих вагань рекомендую всім!


 Трекер:    Зареєстрований   

Завантажити / скачати мультфільм українською



відео для новачків



 Зареєстрований:   2016-08-27 19:48
 Розмір:   8.05 GB 
 Оцінка мультфільму:   9.9/10 (Голосів: 13)
   
kiboal 
Свій


З нами з: 25.12.14
Востаннє: 16.08.17
Повідомлень: 55

2017-01-10 22:06  
звук чувак!! так важко наложить правильно звук щоб співпадав відео в тебе одне довбане відео
Drool 
VIP


З нами з: 17.04.10
Востаннє: 17.08.17
Повідомлень: 1366

2017-01-12 09:31  
kiboal написано:
звук чувак!! так важко наложить правильно звук щоб співпадав відео в тебе одне довбане відео

Чувак, на якому лахмітті ти дивишся?

Ваш часовий пояс: GMT + 2 Години

Нова тема   Відповісти