Південний Парк (Сезон 19) / South Park (Season 19) (2015) 720p Ukr/Eng | Sub Eng

Нові коментарі

Нова тема   Відповісти
Автор Повідомлення
Dark Invader 
Модератор відео


З нами з: 06.01.11
Востаннє: 17.04.21
Повідомлень: 3176

2016-08-24 23:56  
Південний Парк (Сезон 19) / South Park (Season 19) (2015) 720p Ukr/Eng | Sub Eng

Південний Парк (Сезон 19) / South Park (Season 19) (2015) 720p Ukr/Eng | Sub Eng


Жанр: комедія, пародія, чорний гумор, сатира
Країна: США



Кінокомпанія: Braniff Productions, Comedy Partners / Comedy Central
Режисери: Мет Стоун і Трей Паркер
Актори: Мет Стоун, Трей Паркер, Айзек Хейз, Мері Бергман, Еліза Шнайдер, Мона Маршалл, Ейпріл Стюарт, Джон Хенсен, Дженніфер Хоуелл, Едріен Бірд та інші

Сюжет:
Основу сюжету складають пригоди чотирьох хлопчиків і їхніх друзів, що живуть у маленькому містечку Саус Парк, штат Колорадо. Серіал висміює проблеми американської культури і поточних світових подій, а також критикує безліч глибоких переконань і табу завдяки пародії і чорному гумору. Позиціонується як мультфільм для дорослих.
Шоу відоме своїм висвітленням поточних подій, що відбуваються в реальному світі. Робота над кожною серією ведеться в два етапи: на першому автори вигадують загальну концепцію і сюжет, а на другому — менш ніж за тиждень до прем'єрного показу — доопрацьовують деталі. Тому кожен новий випуск мультфільму залишається злободенним і наближеним до реальних подій.


Тривалість: 1 серія: ~ 22 хв. (цілком серій: 10)
Перелік серій
01. Stunning and Brave
02. Where My Country Gone?
03. The City Part of Town
04. You're Not Yelping
05. Safe Space
06. Tweek x Craig
07. Naughty Ninjas
08. Sponsored Content
09. Truth and Advertising
10. PC Principal Final Justice
Якість: 720p
Відео:
кодек:
розмір кадру: 1280 х 718
бітрейт: ~ 4 000 кб/с

Аудіо # 1:
мова: українська
переклад: професійний дубльований
кодек: 2.0
бітрейт: 192 кб/с

Аудіо # 2:
мова: англійська
переклад: оригінал
кодек: 2.0
бітрейт: 160 кб/с

Переклад і озвучення виконано:
студією "Так Треба Продакшн" на замовлення телеканалу
Інформація про дубляж:
Ролі дублювали: Павло Лі (Картман), Олена Бліннікова (Кайл), Олександр Погребняк (Стен), Володимир Терещук, Марина Локтіонова, Наталя Поліщук, Євген Пашин, Павло Скороходько та інші.
Субтитри:
мова: англійська
тип: програмні (м'які)
формат: *.srt

Info
General
Unique ID : 238043834032345895633833811055211317064 (0xB31593265A4322409DC608485C4E0748)
Complete name : D:\Нова папка\South Park - Season 19 (2015) 720p [Ukr.Eng, Sub Eng] [Hurtom] by Dark Invader\[19x01] Stunning and Brave [Ukr.Eng, Sub Eng] 720p [Hurtom].
Format :
Format version : Version 4 / Version 2
File size : 691 MiB
Duration : 22 min
Overall bit rate : 4 359 kb/s
Movie name : South Park - Season 19 Episode 01 - Stunning and Brave / Ослепительная и отважная
Encoded date : UTC 2016-08-19 21:34:38
Writing application : v9.1.0 ('Little Earthquakes') 32bit
Writing library : libebml v1.3.3 + v1.4.4

Video
ID : 1
Format : AVC
Format/Info : Advanced Video Codec
Format profile : [email protected]
Format settings, CABAC : No
Format settings, ReFrames : 2 frames
Codec ID : V_MPEG4/ISO/AVC
Duration : 22 min
Bit rate : 4 016 kb/s
Width : 1 280 pixels
Height : 718 pixels
Display aspect ratio : 16:9
Frame rate mode : Constant
Frame rate : 23.976 (23976/1000) FPS
Color space : YUV
Chroma subsampling : 4:2:0
Bit depth : 8 bits
Scan type : Progressive
Bits/(Pixel*Frame) : 0.182
Stream size : 636 MiB (92%)
Language : English
Default : Yes
Forced : No
Color range : Limited
Color primaries : BT.709
Transfer characteristics : BT.709
Matrix coefficients : BT.709

Audio #1
ID : 2
Format : AC-3
Format/Info : Audio Coding 3
Mode extension : CM (complete main)
Format settings, Endianness : Big
Codec ID : A_AC3
Duration : 22 min
Bit rate mode : Constant
Bit rate : 192 kb/s
Channel(s) : 2 channels
Channel positions : Front: L R
Sampling rate : 48.0 kHz
Frame rate : 31.250 FPS (1536 spf)
Compression mode : Lossy
Stream size : 30.4 MiB (4%)
Title : Так Треба Продакшн
Language : Ukrainian
Default : Yes
Forced : No

Audio #2
ID : 3
Format :
Format/Info : Advanced Audio Codec
Format profile : LC
Codec ID : A_AAC
Duration : 22 min
Bit rate : 149 kb/s
Channel(s) : 2 channels
Channel positions : Front: L R
Sampling rate : 48.0 kHz
Frame rate : 46.875 FPS (1024 spf)
Compression mode : Lossy
Stream size : 23.6 MiB (3%)
Title : Original
Language : English
Default : No
Forced : No

Text
ID : 4
Format : UTF-8
Codec ID : S_TEXT/UTF8
Codec ID/Info : UTF-8 Plain Text
Duration : 21 min
Bit rate : 154 b/s
Count of elements : 570
Stream size : 24.9 KiB (0%)
Title : Full
Language : English
Default : No
Forced : No
Скріншоти:


Джерело: &
Особиста оцінка: 10 - без зайвих вагань рекомендую всім!

Цитата:
Подяки:
За синхронізацію Dark Invader.


Бронзовий реліз (на рейтинг впливає 75% завантаженого)
 Трекер:    Зареєстрований   

Завантажити / скачати мультфільм українською



відео для новачків



 Зареєстрований:   2016-08-24 23:56
 Розмір:   6.72 GB 
 Оцінка мультсеріалу:   10/10 (Голосів: 20)
   
Ваш часовий пояс: GMT + 2 Години

Нова тема   Відповісти