Алдноа.Зеро / Aldnoah.Zero (Сезон 1, 1-12 з 12 / Сезон 2, 1-2 з 12) (2014-2015) 1080р Ukr/Jap | Sub Ukr/Multi

Нові коментарі

Нова тема   Відповісти
Автор Повідомлення
corega 
Новенький


З нами з: 15.10.08
Востаннє: 11.08.17
Повідомлень: 15

2016-08-24 19:10  
Алдноа.Зеро / Aldnoah.Zero (Сезон 1, 1-12 з 12 / Сезон 2, 1-2 з 12) (2014-2015) 1080р Ukr/Jap | Sub Ukr/Multi



Жанр: пригоди, фантастика, меха
Країна: Японія



Кіностудія / кінокомпанія: A-1 Pictures Inc. & Troyca
Режисер: Аокі Ей
Автор оригіналу: Уробучі Ґен
Ролі озвучують: Оно Кеншоу, Какума Ай, Окава Тору та ін.

Сюжет:
Скільки незвіданих таємниць ховається у глибинах Всесвіту. Тисячоліттями люди шукали шляхи до інших світів, до інших планет і їхніх цивілізацій. У 1972 році Космічний екіпаж «Аполона-17» здійснює висадку на поверхні місяця. Астронавти виявили незвичайне місце – кратер, який випромінював світло. Виявилось, що це своєрідний портал на іншу планету – Марс.
Це відкриття дало змогу людям перебратися на Червону планету і колонізувати її, але воно ж і створило нові проблеми: згодом колоністи створили імперію і заявили про свої права на технології марсіан, що призвело до збройних сутичок між Землею і Марсом.
Після, здавалось, нескінченних боїв, знищення Місяця і довгих років холодної війни між двома планетами марсіанська принцеса вирішила посприяти налагодженню відносин із Землею і відправилася в якості посла доброї волі для проведення переговорів. Тільки от вона й уявити собі не могла, що імперія використає нещасний випадок, що стався під час її візиту, як привід для розв'язання нової війни. Скільки ще солдат впаде в нових боях, і чи є спосіб звести кровопролиття до мінімуму, поки не відомо.


Додаткова інформація: 13 серія - це 1 серія 2 сезону.
Тривалість: 1 серія: ~ 23:00 (цілком серій: 24)
Перелік серій
Епізод 01 — Принцеса Варсу
Епізод 02 — Найдовший день на землі
Епізод 03 — Юнаки на полі битви
Епізод 04 — Точка безповоротності
Епізод 05 — Фантом Імператора
Епізод 06 — Острівець пам'яті
Епізод 07 — Доленосна зустріч
Епізод 08 — День, коли ми побачили птаха
Епізод 09 — Машина спогадів
Епізод 10 — Затишшя перед бурею
Епізод 11 — Битва при Новостальську
Епізод 12 — ...навіть якщо небеса впадуть на землю
Епізод 13 — Спляча красуня під Місяцем
Епізод 14 — Неземні сусіди
Якість: 1080p
Контейнер: .
Відео:
кодек:
розмір кадру: 1920 х 1080
бітрейт: 5114 Кбіт/с

Аудіо # 1:
мова: українська
переклад: багатоголосий закадровий
кодек: 2.0
бітрейт: 192 Кбіт/с

Аудіо # 2:
мова: японська
переклад: оригінал
кодек: 2.0
бітрейт: 384 Кбіт/с

Субтитри# 1:
мова: українська (написи)
тип: програмні (м'які)
формат: *.ass

Субтитри# 2:
мова: українська (повні)
тип: програмні (м'які)
формат: *.ass

Субтитри# 3:
мова: китайські і японські (спрощені)
тип: програмні (м'які)
формат: *.pgs

Субтитри# 4:
мова: китайські і японські (традиційні)
тип: програмні (м'які)
формат: *.pgs

Субтитри# 5:
мова: японські (повні)
тип: програмні (м'які)
формат: *.pgs
Info
Цитата:
General
Unique ID : 177708510073268519123663729021389546554 (0x85B16A01F3342482B9FAF3053A76A43A)
Complete name : K:\[Quam_Project]_Aldnoah.Zero_01_BDRip_1080p_[MVO].
Format :
Format version : Version 4 / Version 2
File size : 984 MiB
Duration : 23mn 42s
Overall bit rate : 5 805 Kbps
Encoded date : UTC 2016-08-20 13:00:02
Writing application : mkvmerge v8.3.0 ('Over the Horizon') 32bit
Writing library : libebml v1.3.1 + libmatroska v1.4.2
DURATION : 00:22:07.200000000
NUMBER_OF_FRAMES : 401
NUMBER_OF_BYTES : 65574
_STATISTICS_WRITING_APP : mkvmerge v8.3.0 ('Over the Horizon') 32bit
_STATISTICS_WRITING_DATE_UTC : 2016-08-20 13:00:02
_STATISTICS_TAGS : BPS DURATION NUMBER_OF_FRAMES NUMBER_OF_BYTES
Attachment : Yes

Video
ID : 1
Format : AVC
Format/Info : Advanced Video Codec
Format profile : [email protected]
Format settings, CABAC : Yes
Format settings, ReFrames : 4 frames
Codec ID : V_MPEG4/ISO/AVC
Duration : 23mn 42s
Bit rate : 5 114 Kbps
Width : 1 920 pixels
Height : 1 080 pixels
Display aspect ratio : 16:9
Frame rate mode : Constant
Frame rate : 23.976 fps
Color space : YUV
Chroma subsampling : 4:2:0
Bit depth : 8 bits
Scan type : Progressive
Bits/(Pixel*Frame) : 0.103
Stream size : 867 MiB (88%)
Title : GalenMao(StoneStudio)
Default : Yes
Forced : No
DURATION : 00:23:42.046000000
NUMBER_OF_FRAMES : 34095
NUMBER_OF_BYTES : 909080352
_STATISTICS_WRITING_APP : mkvmerge v8.3.0 ('Over the Horizon') 32bit
_STATISTICS_WRITING_DATE_UTC : 2016-08-20 13:00:02
_STATISTICS_TAGS : BPS DURATION NUMBER_OF_FRAMES NUMBER_OF_BYTES

Audio #1
ID : 2
Format : AC-3
Format/Info : Audio Coding 3
Mode extension : CM (complete main)
Format settings, Endianness : Big
Codec ID : A_AC3
Duration : 23mn 42s
Bit rate mode : Constant
Bit rate : 192 Kbps
Channel(s) : 2 channels
Channel positions : Front: L R
Sampling rate : 48.0 KHz
Bit depth : 16 bits
Compression mode : Lossy
Stream size : 32.5 MiB (3%)
Title : MVO, Quam Project [Chewey & Odonata & D_one]
Language : Ukrainian
Default : Yes
Forced : No

Audio #2
ID : 3
Format : AC-3
Format/Info : Audio Coding 3
Mode extension : CM (complete main)
Format settings, Endianness : Big
Codec ID : A_AC3
Duration : 23mn 42s
Bit rate mode : Constant
Bit rate : 384 Kbps
Channel(s) : 2 channels
Channel positions : Front: L R
Sampling rate : 48.0 KHz
Bit depth : 16 bits
Compression mode : Lossy
Stream size : 65.1 MiB (7%)
Title : Japanese Dolby Digital Audio 2.0
Language : Japanese
Default : No
Forced : No

Text #1
ID : 4
Format : ASS
Codec ID : S_TEXT/ASS
Codec ID/Info : Advanced Sub Station Alpha
Compression mode : Lossless
Title : Написи
Language : Ukrainian
Default : Yes
Forced : Yes

Text #2
ID : 5
Format : ASS
Codec ID : S_TEXT/ASS
Codec ID/Info : Advanced Sub Station Alpha
Compression mode : Lossless
Language : Ukrainian
Default : No
Forced : No

Text #3
ID : 6
Format : PGS
Muxing mode : zlib
Codec ID : S_HDMV/PGS
Codec ID/Info : The same subtitle format used on BDs/HD-DVDs
Title : Simplified Chinese & Japanese PGS
Language : Chinese
Default : No
Forced : No

Text #4
ID : 7
Format : PGS
Muxing mode : zlib
Codec ID : S_HDMV/PGS
Codec ID/Info : The same subtitle format used on BDs/HD-DVDs
Title : Traditional Chinese & Japanese PGS
Language : Chinese
Default : No
Forced : No

Text #5
ID : 8
Format : PGS
Muxing mode : zlib
Codec ID : S_HDMV/PGS
Codec ID/Info : The same subtitle format used on BDs/HD-DVDs
Title : Japanese PGS
Language : Japanese
Default : No
Forced : No


Реліз від:

Переклад: Dandelion
Ролі озвучили: Chewey & Odonata & D_one
Робота зі звуком: Chewey
Постер: Пан_Олександр



Золотий реліз (завантажене не впливає на рейтинг)
 Трекер:    Зареєстрований   

Завантажити / скачати аніме українською



відео для новачків



 Зареєстрований:   2016-08-24 19:10
 Розмір:   15.38 GB 
 Оцінка аніме:   10/10 (Голосів: 1)
   
11FrYkT 
Модератор відео


З нами з: 20.02.11
Востаннє: 21.08.17
Повідомлень: 3807

2016-08-24 19:55  
corega , в заголовку допишіть або всі саби, а кращо Ukr/Multi
також скріншоти повинні бути в формані PNG

Ваш часовий пояс: GMT + 2 Години

Нова тема   Відповісти