Маша та Ведмідь (Серії 52-53) / Маша и Медведь (2015) 1080p

Нові коментарі

Нова тема   Відповісти
Автор Повідомлення
andriyandriy100 
Частий відвідувач


З нами з: 09.04.15
Востаннє: 16.01.21
Повідомлень: 32

2016-08-23 20:08  
Маша та Ведмідь (Серії 52-53) / Маша и Медведь (2015) 1080p

Маша та Ведмідь (Серії 52-53) / Маша и Медведь (2015) 1080p


Жанр: анімація, сімейний, дитячий, комедія
Країна: Росія



Кінокомпанія: Animaccord
Режисер: Олег Кузовков
Сюжет:
Непосидюча, цікава, кумедна і уперта дівчинка дуже подружилася з дбайливим і добрим Ведмедем, який вміє все на світі. Так тепер і проходять їхні дні: Маша знаходить пригоди, Міша їх виручає. Ну і, звичайно, навпаки - вони ж найкращі друзі.


Тривалість: 1 серія: 07:00 (цілком серій: 2)
Перелік серій
52. До нових зустрічей!
53. Вдома краще
Якість:
Відео:
кодек:
розмір кадру: 1920 x 1080
бітрейт: ~ 3000 кб/с

Аудіо:
мова: українська
переклад: професійний дубльований
кодек: 2.0
бітрейт: 126 кб/с
Скріншоти
Info
General
Format : MPEG-4
Format profile : Base Media
Codec ID : isom
File size : 139 MiB
Duration : 7mn 1s
Overall bit rate : 2 767 Kbps
Writing application : Lavf57.2.100
Video
ID : 1
Format : AVC
Format/Info : Advanced Video Codec
Format profile : [email protected]
Format settings, CABAC : Yes
Format settings, ReFrames : 3 frames
Codec ID : avc1
Codec ID/Info : Advanced Video Coding
Duration : 7mn 1s
Bit rate : 2 636 Kbps
Width : 1 920 pixels
Height : 1 080 pixels
Display aspect ratio : 16:9
Frame rate mode : Constant
Frame rate : 25.000 fps
Color space : YUV
Chroma subsampling : 4:2:0
Bit depth : 8 bits
Scan type : Progressive
Bits/(Pixel*Frame) : 0.051
Stream size : 132 MiB (95%)
Color primaries : BT.709
Transfer characteristics : BT.709
Matrix coefficients : BT.709
Audio
ID : 2
Format :
Format/Info : Advanced Audio Codec
Format profile : LC
Codec ID : 40
Duration : 7mn 1s
Bit rate mode : Constant
Bit rate : 126 Kbps
Channel(s) : 2 channels
Channel positions : Front: L R
Sampling rate : 44.1 KHz
Compression mode : Lossy
Delay relative to video : 40ms
Stream size : 6.31 MiB (5%)
Особиста оцінка: 10 - без зайвих вагань рекомендую всім!


 Трекер:    Зареєстрований   

Завантажити / скачати мультфільм українською



відео для новачків



 Зареєстрований:   2016-08-23 20:08
 Розмір:   274 MB 
 Оцінка мультсеріалу:   5.9/10 (Голосів: 21)
   
Dark Invader 
Модератор відео


З нами з: 06.01.11
Востаннє: 17.04.21
Повідомлень: 3176

2016-08-23 21:33  
Відео з YouTube?
leicheman 
Відео Гуртом - фільмокрай
Відео Гуртом - фільмокрай


З нами з: 03.07.14
Востаннє: 17.04.21
Повідомлень: 6127

2016-08-23 21:56  
як же мене бісить ці російські "мульти"
Dark Invader 
Модератор відео


З нами з: 06.01.11
Востаннє: 17.04.21
Повідомлень: 3176

2016-08-23 22:03  
leicheman написано:
як же мене бісить ці російські "мульти"

Мене також, особливо ця дурнувата "Маша і Мєдвєдь".
Але поки правилами таке тут не заборонено.

andriyandriy100 
Частий відвідувач


З нами з: 09.04.15
Востаннє: 16.01.21
Повідомлень: 32

2016-08-24 15:43  
Dark Invader
так

bot 
робот


З нами з: 30.09.07
Востаннє: 26.05.05
Повідомлень: 27901

2016-08-26 00:15  
Тему перенесено з Мультсеріали до форуму Мультсеріали в HD


Dark Invader

Ваш часовий пояс: GMT + 2 Години

Нова тема   Відповісти