TED. Джеймі Олівер. Вчіть дітей правильно харчуватися / Jamie Oliver's TED Prize Wish: Teach Every Child about Food (2010) 720p Ukr/Eng | Sub Ukr/Eng

Нові коментарі

Нова тема   Відповісти
Автор Повідомлення
Студія Hurtom 
Відео Гуртом - фільмокрай
Відео Гуртом - фільмокрай


З нами з: 16.01.15
Востаннє: 18.08.17
Повідомлень: 668

2016-08-23 18:27  
TED. Джеймі Олівер. Вчіть дітей правильно харчуватися / Jamie Oliver's TED Prize Wish: Teach Every Child about Food (2010) 720p Ukr/Eng | Sub Ukr/Eng


Жанр: документальний
Країна: США



Телеканал: TED
Режисер: Джейсон Вішнау

Сюжет:
У рамках свого проекту боротьби з ожирінням переможець премії TED-Prize Джеймі Олівер викладає переконливі аргументи у Гантінґтоні, Західній Вірджинії, виступаючи за безкомпромісну війну проти нашого нехтування своїм харчуванням.


Також на Гуртом: Джеймі Олівер. Обід за 15 хвилин / Jamie's 15 Minute Meals (2012) Ukr/Eng

Революція харчування від Джеймі Олівера (Сезон 1) / Jamie's Food Revolution (Season 1) (2010)

У 2015 році, видавництво Старого Лева видало книжку «Смачні страви за 30 хвилин». Восени 2016 року вийшла книжка «Готуємо з Джеймі». Придбати можна у них на сайті, або в інших книгарнях.


Озвучено і субтитровано Студією Гуртом:
Окуповані / Okkupert — сезон 1
Бункери, бруталізм і бунтарство: поезія в бетоні з Джонатаном Мідсом /
Bunkers, Brutalism and Bloodymindedness: Concrete Poetry with Jonathan Meades (2014)

Пан Робот / Mr. Robot — сезон 1, сезон 2
Краще подзвоніть Солу / Better Call Saul — сезон 1, сезон 2
Фарґо / Fargo — сезон 1, сезон 2
Картковий будинок / House of Cards — сезони 1-2-3-4
Кремнієва Долина / Silicon Valley — сезон 1, сезон 2, сезон 3
Зупинись і гори / Halt and Catch Fire — сезон 1, сезон 2
Останнє Королівство / The Last Kingdom — сезон 1, сезон 2
Сім епох Британії / Seven Ages of Britain (2010)
Як ми будували Британію / How We Built Britain (2007)
Суфражистка / Suffragette (2015)
Фарґо / Fargo (1996)


Info
Код:
Format                           :
Format version                   : Version 4 / Version 2
File size                        : 270 MiB
Duration                         : 21mn 49s
Overall bit rate                 : 1 732 Kbps
Movie name                       : TED. Джеймі Олівер. Вчіть дітей правильно харчуватися (2010) 720p [Ukr.Eng] [Hurtom]
Encoded date                     : UTC 2016-08-23 14:59:00
Writing application              : mkvmerge v8.1.0 ('Psychedelic Postcard') 32bit
Writing library                  : libebml v1.3.1 + libmatroska v1.4.2
DURATION                         : 00:21:23.050000000
NUMBER_OF_FRAMES                 : 474
NUMBER_OF_BYTES                  : 17527
_STATISTICS_WRITING_APP          : mkvmerge v8.1.0 ('Psychedelic Postcard') 32bit
_STATISTICS_WRITING_DATE_UTC     : 2016-08-23 14:59:00
_STATISTICS_TAGS                 : BPS DURATION NUMBER_OF_FRAMES NUMBER_OF_BYTES

Video
ID                               : 1
Format                           : AVC
Format/Info                      : Advanced Video Codec
Format profile                   : [email protected]
Format settings, CABAC           : Yes
Format settings, ReFrames        : 7 frames
Codec ID                         : V_MPEG4/ISO/AVC
Duration                         : 21mn 50s
Bit rate                         : 1 313 Kbps
Width                            : 1 280 pixels
Height                           : 720 pixels
Display aspect ratio             : 16:9
Frame rate mode                  : Variable
Frame rate                       : 24.000 fps
Color space                      : YUV
Chroma subsampling               : 4:2:0
Bit depth                        : 8 bits
Scan type                        : Progressive
Bits/(Pixel*Frame)               : 0.059
Stream size                      : 205 MiB (76%)
Title                            : TED. Джеймі Олівер. Вчіть дітей правильно харчуватися (2010) 720p [Ukr.Eng] [Hurtom]
Language                         : English
Default                          : Yes
Forced                           : No

Audio #1
ID                               : 2
Format                           : AC-3
Format/Info                      : Audio Coding 3
Mode extension                   : CM (complete main)
Codec ID                         : A_AC3
Duration                         : 21mn 49s
Bit rate mode                    : Constant
Bit rate                         : 192 Kbps
Channel(s)                       : 2 channels
Channel positions                : Front: L R
Sampling rate                    : 48.0 KHz
Bit depth                        : 16 bits
Compression mode                 : Lossy
Stream size                      : 30.0 MiB (11%)
Title                            : 2.0 @ 192 Kbps – озвучено Студією «Hurtom» для Hurtom.com
Language                         : Ukrainian
Default                          : Yes
Forced                           : No

Audio #2
ID                               : 3
Format                           : AC-3
Format/Info                      : Audio Coding 3
Mode extension                   : CM (complete main)
Codec ID                         : A_AC3
Duration                         : 21mn 49s
Bit rate mode                    : Constant
Bit rate                         : 192 Kbps
Channel(s)                       : 2 channels
Channel positions                : Front: L R
Sampling rate                    : 48.0 KHz
Bit depth                        : 16 bits
Compression mode                 : Lossy
Stream size                      : 30.0 MiB (11%)
Title                            : 2.0 @ 192 Kbps – оригінал
Language                         : English
Default                          : No
Forced                           : No

Text #1
ID                               : 4
Format                           : UTF-8
Codec ID                         : S_TEXT/UTF8
Codec ID/Info                    : UTF-8 Plain Text
Title                            : Субтитри від Студії «Гуртом» для Hurtom.com
Language                         : Ukrainian
Default                          : No
Forced                           : No

Text #2
ID                               : 5
Format                           : UTF-8
Codec ID                         : S_TEXT/UTF8
Codec ID/Info                    : UTF-8 Plain Text
Language                         : English
Default                          : No
Forced                           : No
Тривалість: 00:21:50
Якість: 720p
Відео:
кодек:
розмір кадру: 1280x720
бітрейт: 1316 кб/с

Аудіо # 1:
мова: українська
озвучення: професійне багатоголосе закадрове | Студія «Гуртом»
кодек: 2.0
бітрейт: 192 кб/с

Аудіо # 2:
мова: англійська
переклад: оригінал
кодек: 2.0
бітрейт: 192 кб/с

Субтитри # 1:
мова: українська (набрані з перекладу)
тип: програмні (м’які)
формат: *.srt (окремо завантажити тут)

Субтитри # 2:
мова: англійська (були виправлені помилки синхронізації)
тип: програмні (м’які)
формат: *.srt
Скріншоти











Висловлюємо подяку за допомогу: Vasua95


Джерело: (переглянути онлайн, можна на нашій сторінці у фейсбуці)


Авторський реліз (завантажувати можна без реєстрації)
 Трекер:    Зареєстрований   

Завантажити / скачати передачу українською



відео для новачків



 Зареєстрований:   2016-08-23 18:33
 Розмір:   270 MB 
 Оцінка передачі:   9.9/10 (Голосів: 18)
   
Ваш часовий пояс: GMT + 2 Години

Нова тема   Відповісти