Гроші на двох / Two For The Money (2005) AVC 5xUkr/Eng | sub Eng

Нові коментарі

Нова тема   Відповісти
Автор Повідомлення
Arsenfpu 
Відео Гуртом - фільмокрай
Відео Гуртом - фільмокрай


З нами з: 30.04.09
Востаннє: 02.07.20
Повідомлень: 7028

2016-08-18 19:48  
Гроші на двох / Two For The Money (2005) AVC 5xUkr/Eng | sub Eng

Гроші на двох / Two For The Money (2005) AVC 5xUkr/Eng | sub Eng


Жанр: трилер, драма, спорт
Країна: США



Кінокомпанія: Cosmic Entertainment | Morgan Creek Productions | Universal Pictures
Режисер: Ді Джей Карузо
Актори: Аль Пачіно, Меттью МакКонахі, Рене Руссо, Арманд Ассанте, Джеремі Півень, Джеймі Кинг, Кевін Чепмен, Ральф Гармен, Гедде Ватанабе, Карлі Поуп та інші

Сюжет:
Форвард успішної футбольної команди Брендон, одержавши травму і назавжди розпрощавшись із спортивною кар'єрою, вимушений шукати інші способи заробітку. Він розпочав робити прогнози на матчі американського футболу і це виходило в нього досить вдало. Невдовзі його новий талант помічає букмекер Волтер, що знає напевно, як легко і швидко примножити капітал та укладає з екс-футболістом авантюрний договір. Жонглюючи мільйонами доларів, Брендон і Волтер вступають в небезпечну гру, де програш подібний смерті. До ним в руки пливуть скажені гроші, але чи витримає Болівар двох?..


Тривалість: 02:02:32
Якість: AVC
Відео:
кодек:
розмір кадру: 1024x436
бітрейт: 2005 кб/с

Аудіо # 1:
мова: українська
переклад: багатоголосий закадровий
кодек: 2.0
бітрейт: 192 кб/с

Аудіо # 2:
мова: українська
переклад: багатоголосий закадровий
кодек: 2.0
бітрейт: 192 кб/с

Аудіо # 3:
мова: українська
переклад: багатоголосий закадровий
кодек: 2.0
бітрейт: 192 кб/с

Аудіо # 4:
мова: українська
переклад: багатоголосий закадровий (з 5.1)
кодек: 2.0
бітрейт: 192 кб/c

Аудіо # 5:
мова: українська
переклад: багатоголосий закадровий
кодек: 2.0
бітрейт: 192 кб/с

Аудіо # 6:
мова: англійська
переклад: оригінал
кодек: 2.0
бітрейт: 192 кб/c

Субтитри:
мова: англійська
тип: програмні (м'які)
формат: *.srt
Скріншоти














Про файл
General
Unique ID : 53048472530361484849833413641524815868 (0x27E8C3A0F96AE00281E37677F83127FC)
Complete name : H:\Two For The Money (2005) [5xUkr,Eng] AVC [Hurtom].
Format :
Format version : Version 4 / Version 2
File size : 2.70 GiB
Duration : 2 h 2 min
Overall bit rate : 3 159 kb/s
Movie name : Гроші на двох / Two For The Money (2005)
Encoded date : UTC 2020-06-13 13:20:35
Writing application : v21.0.0 ('Tardigrades Will Inherit The Earth') 32-bit
Writing library : libebml v1.3.5 + v1.4.8
Cover : Yes
Attachments : cover.jpg

Video
ID : 1
Format : AVC
Format/Info : Advanced Video Codec
Format profile : [email protected]
Format settings, CABAC : Yes
Format settings, ReFrames : 12 frames
Codec ID : V_MPEG4/ISO/AVC
Duration : 2 h 2 min
Bit rate : 2 005 kb/s
Width : 1 024 pixels
Height : 436 pixels
Display aspect ratio : 2.35:1
Frame rate mode : Constant
Frame rate : 23.976 (24000/1001) FPS
Color space : YUV
Chroma subsampling : 4:2:0
Bit depth : 8 bits
Scan type : Progressive
Bits/(Pixel*Frame) : 0.187
Stream size : 1.72 GiB (63%)
Writing library : core 152 r2851 ba24899
Encoding settings : cabac=1 / ref=12 / deblock=1:-2:-2 / analyse=0x3:0x133 / me=umh / subme=11 / psy=1 / psy_rd=1.00:0.00 / mixed_ref=1 / me_range=32 / chroma_me=1 / trellis=2 / 8x8dct=1 / cqm=0 / deadzone=21,11 / fast_pskip=0 / chroma_qp_offset=-3 / threads=6 / lookahead_threads=1 / sliced_threads=0 / nr=0 / decimate=0 / interlaced=0 / bluray_compat=0 / constrained_intra=0 / bframes=10 / b_pyramid=2 / b_adapt=2 / b_bias=0 / direct=3 / weightb=1 / open_gop=0 / weightp=2 / keyint=240 / keyint_min=23 / scenecut=40 / intra_refresh=0 / rc_lookahead=40 / rc=2pass / mbtree=0 / bitrate=2005 / ratetol=1.0 / qcomp=0.60 / qpmin=0 / qpmax=69 / qpstep=4 / cplxblur=20.0 / qblur=0.5 / vbv_maxrate=50000 / vbv_bufsize=62500 / nal_hrd=none / filler=0 / ip_ratio=1.40 / pb_ratio=1.30 / aq=2:1.00
Language : English
Default : Yes
Forced : No

Audio #1
ID : 2
Format : AC-3
Format/Info : Audio Coding 3
Mode extension : CM (complete main)
Format settings, Endianness : Big
Codec ID : A_AC3
Duration : 2 h 2 min
Bit rate mode : Constant
Bit rate : 192 kb/s
Channel(s) : 2 channels
Channel positions : Front: L R
Sampling rate : 48.0 kHz
Frame rate : 31.250 FPS (1536 spf)
Compression mode : Lossy
Stream size : 168 MiB (6%)
Title : Інтер
Language : Ukrainian
Default : Yes
Forced : Yes

Audio #2
ID : 3
Format : AC-3
Format/Info : Audio Coding 3
Mode extension : CM (complete main)
Format settings, Endianness : Big
Codec ID : A_AC3
Duration : 2 h 2 min
Bit rate mode : Constant
Bit rate : 192 kb/s
Channel(s) : 2 channels
Channel positions : Front: L R
Sampling rate : 48.0 kHz
Frame rate : 31.250 FPS (1536 spf)
Compression mode : Lossy
Stream size : 168 MiB (6%)
Title : Україна
Language : Ukrainian
Default : No
Forced : No

Audio #3
ID : 4
Format : AC-3
Format/Info : Audio Coding 3
Mode extension : CM (complete main)
Format settings, Endianness : Big
Codec ID : A_AC3
Duration : 2 h 2 min
Bit rate mode : Constant
Bit rate : 192 kb/s
Channel(s) : 2 channels
Channel positions : Front: L R
Sampling rate : 48.0 kHz
Frame rate : 31.250 FPS (1536 spf)
Compression mode : Lossy
Stream size : 168 MiB (6%)
Title : Cine+
Language : Ukrainian
Default : No
Forced : No

Audio #4
ID : 5
Format : AC-3
Format/Info : Audio Coding 3
Mode extension : CM (complete main)
Format settings, Endianness : Big
Codec ID : A_AC3
Duration : 2 h 2 min
Bit rate mode : Constant
Bit rate : 192 kb/s
Channel(s) : 2 channels
Channel positions : Front: L R
Sampling rate : 48.0 kHz
Frame rate : 31.250 FPS (1536 spf)
Compression mode : Lossy
Stream size : 168 MiB (6%)
Title : Новий
Language : Ukrainian
Default : No
Forced : No

Audio #5
ID : 6
Format : AC-3
Format/Info : Audio Coding 3
Mode extension : CM (complete main)
Format settings, Endianness : Big
Codec ID : A_AC3
Duration : 2 h 2 min
Bit rate mode : Constant
Bit rate : 192 kb/s
Channel(s) : 2 channels
Channel positions : Front: L R
Sampling rate : 48.0 kHz
Frame rate : 31.250 FPS (1536 spf)
Compression mode : Lossy
Stream size : 168 MiB (6%)
Title : amc
Language : Ukrainian
Default : No
Forced : No

Audio #6
ID : 7
Format : AC-3
Format/Info : Audio Coding 3
Mode extension : CM (complete main)
Format settings, Endianness : Big
Codec ID : A_AC3
Duration : 2 h 2 min
Bit rate mode : Constant
Bit rate : 192 kb/s
Channel(s) : 2 channels
Channel positions : Front: L R
Sampling rate : 48.0 kHz
Frame rate : 31.250 FPS (1536 spf)
Compression mode : Lossy
Stream size : 168 MiB (6%)
Language : English
Default : No
Forced : No

Text
ID : 8
Format : UTF-8
Codec ID : S_TEXT/UTF8
Codec ID/Info : UTF-8 Plain Text
Duration : 1 h 55 min
Bit rate : 92 b/s
Count of elements : 1872
Stream size : 78.6 KiB (0%)
Language : English
Default : No
Forced : No

Menu
00:00:00.000 : en:00:00:00.000
00:01:53.738 : en:00:01:53.738
00:04:01.991 : en:00:04:01.991
00:08:11.199 : en:00:08:11.199
00:10:17.366 : en:00:10:17.366
00:14:53.767 : en:00:14:53.767
00:17:15.784 : en:00:17:15.784
00:23:28.323 : en:00:23:28.323
00:28:40.552 : en:00:28:40.552
00:32:17.352 : en:00:32:17.352
00:36:21.846 : en:00:36:21.846
00:39:52.556 : en:00:39:52.556
00:43:39.700 : en:00:43:39.700
00:47:28.720 : en:00:47:28.720
00:50:11.049 : en:00:50:11.049
00:54:03.907 : en:00:54:03.907
00:57:01.876 : en:00:57:01.876
01:01:26.307 : en:01:01:26.307
01:04:04.549 : en:01:04:04.549
01:06:40.746 : en:01:06:40.746
01:10:49.161 : en:01:10:49.161
01:14:19.913 : en:01:14:19.913
01:19:17.210 : en:01:19:17.210
01:23:30.380 : en:01:23:30.380
01:26:18.756 : en:01:26:18.756
01:30:25.628 : en:01:30:25.628
01:33:02.410 : en:01:33:02.410
01:39:32.424 : en:01:39:32.424
01:46:56.952 : en:01:46:56.952
01:49:33.733 : en:01:49:33.733
01:55:23.041 : en:01:55:23.041
01:56:50.044 : en:01:56:50.044
Джерело:
За звук дякую п. kryk-v.ya., xslim, drop_plz, Sando7, -_-B_Е_N_D_E_R-_-, Romario_O
Особиста оцінка: нормальне кіно


 Трекер:    Зареєстрований   

Завантажити / скачати фільм українською



відео для новачків



 Зареєстрований:   2020-06-13 16:37
 Розмір:   2.7 GB 
 Оцінка фільму:   8.4/10 (Голосів: 11)
   
Інші релізи
AnkaPartizanka 
Поважний учасник


З нами з: 08.01.17
Востаннє: 02.07.20
Повідомлень: 173

2017-04-18 09:16  
Фільм з гарною ідеєю, зірковий дует Пачіно МакКонахі, але стрічка з тих, яку не будеш дивитися знову
bot 
робот


З нами з: 30.09.07
Востаннє: 26.05.05
Повідомлень: 24916

2018-09-11 08:20  
Тему перенесено з Фільми до форуму Архів відео

Причина перенесення: https://toloka.to/t89300
igor911

Arsenfpu 
Відео Гуртом - фільмокрай
Відео Гуртом - фільмокрай


З нами з: 30.04.09
Востаннє: 02.07.20
Повідомлень: 7028

2019-03-03 14:48  
Реліз оновлено!
Додано озвучення від Cine і змінено відео на AVC

Dark Invader 
Модератор відео


З нами з: 06.01.11
Востаннє: 02.07.20
Повідомлень: 2883

2019-03-04 03:24  
Arsenfpu написано:
розмір кадру: 1024x436

Скріншоти мають розмір 1024x500. Виправте.

Arsenfpu 
Відео Гуртом - фільмокрай
Відео Гуртом - фільмокрай


З нами з: 30.04.09
Востаннє: 02.07.20
Повідомлень: 7028

2020-06-13 16:37  
Реліз оновлено!
Додано озвучення від Інтера та amc.

Ваш часовий пояс: GMT + 2 Години

Нова тема   Відповісти