Moonshine Blues | Дискографія (3 альбоми) (2012-2016) [FLAC] | Modern Classical / Ambient

Нові коментарі

Нова тема   Відповісти
Автор Повідомлення
kolpavel 
VIP


З нами з: 04.05.14
Востаннє: 18.08.17
Повідомлень: 1156

2016-08-15 20:42  
Moonshine Blues | Дискографія (3 альбоми) (2012-2016) [FLAC] | Modern Classical / Ambient

Moonshine Blues | Дискографія (3 альбоми) (2012-2016) [FLAC] | Modern Classical / Ambient


Стиль: Modern Classical Ambient Drone
Країна, місто: Україна, Київ
Виконавці:
Олексій Сакевич
Альбоми:
2012 - Between Dusk and Dawn

Moonshine Blues | Дискографія (3 альбоми) (2012-2016) [FLAC] | Modern Classical / Ambient


Треклист:
01. Dusk - 05:10
02. Northern Lights - 05:40
03. The Night Lullaby - 05:18
04. Dawn - 06:46

Тривалість: 00:22:53
Видавець: Hidden Vibes
Мова: відсутня (інструментальні композиції)
Бітрейт: 709-1571 кб/с
AUDIOCHECKER
AUDIOCHECKER v2.0 beta (build 457) - by Dester - [email protected]
~~~~~~~~~~~~~~~~~~~~~~~~~~~~~~~~~~

Started at: воскресенье, 14. 08. 2016. - 20:13.42
4 files found

1 -===- F:\Мои Раздачи\Endless Melancholy\Moonshine Blues - 2012 - Between Dusk and Dawn (web)\01 - Dusk.flac
Extracted successfully
Conclusion: this track is CDDA with probability 100%
Tempfile successfully deleted.

2 -===- F:\Мои Раздачи\Endless Melancholy\Moonshine Blues - 2012 - Between Dusk and Dawn (web)\02 - Northern Lights.flac
Extracted successfully
Conclusion: this track is CDDA with probability 94%
Tempfile successfully deleted.

3 -===- F:\Мои Раздачи\Endless Melancholy\Moonshine Blues - 2012 - Between Dusk and Dawn (web)\03 - The Night Lullaby.flac
Extracted successfully
Conclusion: this track is CDDA with probability 100%
Tempfile successfully deleted.

4 -===- F:\Мои Раздачи\Endless Melancholy\Moonshine Blues - 2012 - Between Dusk and Dawn (web)\04 - Dawn.flac
Extracted successfully
Conclusion: this track is CDDA with probability 87%
Tempfile successfully deleted.

Finished at: воскресенье, 14. 08. 2016. - 20:15.15 (operation time: 0:01.32)
Спектрограми

Moonshine Blues | Дискографія (3 альбоми) (2012-2016) [FLAC] | Modern Classical / Ambient

Moonshine Blues | Дискографія (3 альбоми) (2012-2016) [FLAC] | Modern Classical / Ambient
2012 - Through (16-24-bit)

Moonshine Blues | Дискографія (3 альбоми) (2012-2016) [FLAC] | Modern Classical / Ambient


Треклист:
01. Ages - 06:31
02. Spaces - 07:43
03. Revelations - 07:46 [16-bit]
04. And Worlds Unknown - 06:15
05. We're Going to Rise Up Above - 05:16

Тривалість: 00:33:31
Видавець: Hidden Vibes
Мова: відсутня (інструментальні композиції)
Бітрейт: 709-1571 кб/с
Dynamic Range Meter
foobar2000 1.3.9 / Dynamic Range Meter 1.1.1
log date: 2016-08-14 20:16:06

--------------------------------------------------------------------------------
Analyzed: Moonshine Blues / Through
--------------------------------------------------------------------------------

DR Peak RMS Duration Track
--------------------------------------------------------------------------------
DR6 -0.35 dB -8.15 dB 6:31 01-Ages
DR4 -0.13 dB -5.65 dB 7:43 02-Spaces
--------------------------------------------------------------------------------

Number of tracks: 2
Official DR value: DR5

Samplerate: 44100 Hz
Channels: 2
Bits per sample: 24
Bitrate: 1409 kbps
Codec: FLAC
================================================================================

--------------------------------------------------------------------------------
Statistics for: 03-Revelations
Number of samples: 20550830
Duration: 7:46
--------------------------------------------------------------------------------

Left Right

Peak Value: 0.00 dB --- -0.09 dB
Avg RMS: -9.07 dB --- -9.71 dB
DR channel: 7.57 dB --- 7.67 dB
--------------------------------------------------------------------------------

Official DR Value: DR8

Samplerate: 44100 Hz
Channels: 2
Bits per sample: 16
Bitrate: 709 kbps
Codec: FLAC
================================================================================
--------------------------------------------------------------------------------
Analyzed: Moonshine Blues / Through
--------------------------------------------------------------------------------

DR Peak RMS Duration Track
--------------------------------------------------------------------------------
DR6 -0.27 dB -9.45 dB 6:15 04-And Worlds Unknown
DR2 -0.07 dB -3.67 dB 5:16 05-We're Going to Rise Up Above
--------------------------------------------------------------------------------

Number of tracks: 2
Official DR value: DR4

Samplerate: 44100 Hz
Channels: 2
Bits per sample: 24
Bitrate: 1571 kbps
Codec: FLAC
================================================================================
Спектрограми
Moonshine Blues | Дискографія (3 альбоми) (2012-2016) [FLAC] | Modern Classical / Ambient
2015 - Through / Out (16-24-bit)

Moonshine Blues | Дискографія (3 альбоми) (2012-2016) [FLAC] | Modern Classical / Ambient


Треклист:
01. Ages - 06:32
02. Spaces - 07:43
03. Revelations - 07:47 [16-bit]
04. And Worlds Unknown - 06:16
05. We're Going to Rise Up Above - 05:17
06. Into a Deep Blue Cavern - 07:37 [16-bit]
07. Float Weightlessly - 05:25 [16-bit]
08. Celeste - 05:23 [16-bit]
09. Dreams in Malachite - 09:15 [16-bit]

Тривалість: 01:01:09
Видавець: Endless Melancholy
Мова: відсутня (інструментальні композиції)
Бітрейт: 709-1571 кб/с
Dynamic Range Meter
foobar2000 1.3.9 / Dynamic Range Meter 1.1.1
log date: 2016-03-30 00:41:11

--------------------------------------------------------------------------------
Analyzed: Moonshine Blues / Through / Out
--------------------------------------------------------------------------------

DR Peak RMS Duration Track
--------------------------------------------------------------------------------
DR6 -0.35 dB -8.15 dB 6:31 01-Ages
DR4 -0.13 dB -5.65 dB 7:43 02-Spaces
--------------------------------------------------------------------------------

Number of tracks: 2
Official DR value: DR5

Samplerate: 44100 Hz
Channels: 2
Bits per sample: 24
Bitrate: 1409 kbps
Codec: FLAC
================================================================================

--------------------------------------------------------------------------------
Statistics for: 03-Revelations
Number of samples: 20550830
Duration: 7:46
--------------------------------------------------------------------------------

Left Right

Peak Value: 0.00 dB --- -0.09 dB
Avg RMS: -9.07 dB --- -9.71 dB
DR channel: 7.57 dB --- 7.67 dB
--------------------------------------------------------------------------------

Official DR Value: DR8

Samplerate: 44100 Hz
Channels: 2
Bits per sample: 16
Bitrate: 709 kbps
Codec: FLAC
================================================================================
--------------------------------------------------------------------------------
Analyzed: Moonshine Blues / Through / Out
--------------------------------------------------------------------------------

DR Peak RMS Duration Track
--------------------------------------------------------------------------------
DR6 -0.27 dB -9.45 dB 6:15 04-And Worlds Unknown
DR2 -0.07 dB -3.67 dB 5:16 05-We're Going to Rise Up Above
--------------------------------------------------------------------------------

Number of tracks: 2
Official DR value: DR4

Samplerate: 44100 Hz
Channels: 2
Bits per sample: 24
Bitrate: 1571 kbps
Codec: FLAC
================================================================================

--------------------------------------------------------------------------------
Analyzed: Moonshine Blues / Through / Out
--------------------------------------------------------------------------------

DR Peak RMS Duration Track
--------------------------------------------------------------------------------
DR8 -0.51 dB -12.84 dB 7:36 06-Into a Deep Blue Cavern
DR9 -0.67 dB -11.79 dB 5:25 07-Float Weightlessly
DR9 -0.49 dB -13.50 dB 5:22 08-Celeste
DR9 -0.08 dB -12.55 dB 9:14 09-Dreams in Malachite
--------------------------------------------------------------------------------

Number of tracks: 4
Official DR value: DR9

Samplerate: 44100 Hz
Channels: 2
Bits per sample: 16
Bitrate: 606 kbps
Codec: FLAC
================================================================================
Спектрограми

Moonshine Blues | Дискографія (3 альбоми) (2012-2016) [FLAC] | Modern Classical / Ambient

Moonshine Blues | Дискографія (3 альбоми) (2012-2016) [FLAC] | Modern Classical / Ambient

Moonshine Blues | Дискографія (3 альбоми) (2012-2016) [FLAC] | Modern Classical / Ambient
Тривалість: 01:57:33
Мова: Iнструментальнi композицii
Аудіо-кодек: FLAC
Бітрейт: 709 - 1571 кб/с
Джерело: трекер


Золотий реліз (завантажене не впливає на рейтинг)
 Трекер:    Зареєстрований   

Завантажити / скачати українську музику



відео для новачків



 Зареєстрований:   2016-08-16 01:12
 Розмір:   838 MB 
 Оцінка музики:   10/10 (Голосів: 2)
   
kolpavel 
VIP


З нами з: 04.05.14
Востаннє: 18.08.17
Повідомлень: 1156

2016-08-16 01:31  
Ваш часовий пояс: GMT + 2 Години

Нова тема   Відповісти