Зоотрополіс / Zootopia (2016) 720p-mini 60fps Ukr/Eng | Sub Ukr/Eng

Нові коментарі

Нова тема   Відповісти
Автор Повідомлення
SilentBoss 
Частий відвідувач


З нами з: 19.01.11
Востаннє: 16.08.17
Повідомлень: 35

2016-08-15 19:44  
Зоотрополіс / Zootopia (2016) 720p-mini 60fps Ukr/Eng | Sub Ukr/Eng

Зоотрополіс / Zootopia (2016) 720p-mini 60fps Ukr/Eng | Sub Ukr/Eng


Жанр: анімація, екшн, пригодницький
Країна: США



Кінокомпанія: Walt Disney Pictures, Walt Disney Animation Studios
Режисер: Байрон Говард, Річ Мур, Джаред Буш
Актори: Джінніфер Гудвін, Джейсон Бейтмен, Ідріс Ельба, Дженні Слейт, Нейт Торренс, Бонні Гант, Дон Лейк, Томмі Чонґ, Дж.К. Сіммонс, Октавія Спенсер, Алан Тьюдік, Шакіра

Сюжет:
Ласкаво просимо у Зоотрополіс - сучасне місто, яке населяють найрізноманітніші тварини, від величезних слонів до крихітних мишок. Зоотрополіс розділений на райони, що повністю повторюють природне місце існування різних жителів. У цьому місті з'являється новий офіцер поліції, життєрадісна зайчиха Джуді Гоппс, яка з перших днів роботи розуміє, як складно бути маленькою і пухнастою серед великих і сильних поліцейських. Джуді хапається за першу ж можливість проявити себе, не дивлячись на те, що її партнером буде балакучий хитрий лис Нік Вайлд. Удвох їм доведеться розкрити складну справу, від якої буде залежати доля всіх мешканців Зоотрополісу.


Тривалість: 01:48:44
Якість:
Відео:
кодек:
розмір кадру: 1280x536
бітрейт: 4 155 Kbps, 59.940 fps

Аудіо # 1:
мова: українська
переклад: професійний дубльований
кодек: 5.1
бітрейт: 640 кб/с

Аудіо # 2:
мова: англійська
переклад: оригінал
кодек: 5.1
бітрейт: 640 кб/с

Субтитри 1:
мова: | by Gedet
тип: програмні (м'які)
формат:*.ass

Субтитри 2 та 3:
мова: англійська (англійська (повні, SDH)
тип: програмні (м'які)
формат:*.srt
Info
Video
ID : 1
Format : AVC
Format/Info : Advanced Video Codec
Format profile : [email protected]
Format settings, CABAC : Yes
Format settings, ReFrames : 9 frames
Codec ID : V_MPEG4/ISO/AVC
Duration : 1h 48mn
Bit rate : 4 155 Kbps
Width : 1 280 pixels
Height : 536 pixels
Display aspect ratio : 2.40:1
Frame rate mode : Constant
Frame rate : 59.940 (60000/1001) fps
Color space : YUV
Chroma subsampling : 4:2:0
Bit depth : 8 bits
Scan type : Progressive
Bits/(Pixel*Frame) : 0.101
Stream size : 3.15 GiB (76%)
Title : Zootopia.(2016)..720p.[envy].[60fps]
Writing library : core 146 r2538 121396c
Encoding settings : cabac=1 / ref=9 / deblock=1:0:0 / analyse=0x3:0x113 / me=umh / subme=10 / psy=1 / psy_rd=1.00:0.00 / mixed_ref=1 / me_range=24 / chroma_me=1 / trellis=2 / 8x8dct=1 / cqm=0 / deadzone=21,11 / fast_pskip=0 / chroma_qp_offset=-2 / threads=12 / lookahead_threads=1 / sliced_threads=0 / nr=0 / decimate=0 / interlaced=0 / bluray_compat=0 / constrained_intra=0 / bframes=5 / b_pyramid=2 / b_adapt=2 / b_bias=0 / direct=2 / weightb=1 / open_gop=0 / weightp=2 / keyint=250 / keyint_min=25 / scenecut=40 / intra_refresh=0 / rc_lookahead=40 / rc=crf / mbtree=0 / crf=17.3 / qcomp=0.60 / qpmin=0 / qpmax=69 / qpstep=4 / vbv_maxrate=14000 / vbv_bufsize=14000 / crf_max=0.0 / nal_hrd=none / filler=0 / ip_ratio=1.40 / pb_ratio=1.30 / aq=3:0.70
Language : English
Default : Yes
Forced : No

Audio #1
ID : 2
Format : AC-3
Format/Info : Audio Coding 3
Mode extension : CM (complete main)
Format settings, Endianness : Big
Codec ID : A_AC3
Duration : 1h 48mn
Bit rate mode : Constant
Bit rate : 640 Kbps
Channel(s) : 6 channels
Channel positions : Front: L C R, Side: L R, LFE
Sampling rate : 48.0 KHz
Frame rate : 31.250 fps (1536 spf)
Compression mode : Lossy
Stream size : 497 MiB (12%)
Title : дубляж | 5.1 640kbps
Language : Ukrainian
Default : Yes
Forced : No

Audio #2
ID : 3
Format : AC-3
Format/Info : Audio Coding 3
Mode extension : CM (complete main)
Format settings, Endianness : Big
Codec ID : A_AC3
Duration : 1h 48mn
Bit rate mode : Constant
Bit rate : 640 Kbps
Channel(s) : 6 channels
Channel positions : Front: L C R, Side: L R, LFE
Sampling rate : 48.0 KHz
Frame rate : 31.250 fps (1536 spf)
Compression mode : Lossy
Stream size : 497 MiB (12%)
Title : оригінал | 5.1 640kbps
Language : English
Default : No
Forced : No

Text #1
ID : 4
Format : ASS
Codec ID : S_TEXT/ASS
Codec ID/Info : Advanced Sub Station Alpha
Duration : 1h 35mn
Bit rate : 183 bps
Count of elements : 1407
Compression mode : Lossless
Stream size : 128 KiB (0%)
Title : by Gedet
Language : Ukrainian
Default : No
Forced : No

Text #2
ID : 5
Format : UTF-8
Codec ID : S_TEXT/UTF8
Codec ID/Info : UTF-8 Plain Text
Duration : 1h 38mn
Bit rate : 71 bps
Count of elements : 1698
Stream size : 52.0 KiB (0%)
Title : Full
Language : English
Default : No
Forced : No

Text #3
ID : 6
Format : UTF-8
Codec ID : S_TEXT/UTF8
Codec ID/Info : UTF-8 Plain Text
Duration : 1h 45mn
Bit rate : 82 bps
Count of elements : 2293
Stream size : 63.7 KiB (0%)
Title : SDH
Language : English
Default : No
Forced : No

Menu
00:00:00.000 : en:(01)00:00:00:000
00:00:59.558 : en:(02)00:00:59:558
00:05:50.098 : en:(03)00:05:50:098
00:10:05.562 : en:(04)00:10:05:562
00:14:31.537 : en:(05)00:14:31:537
00:18:24.019 : en:(06)00:18:24:019
00:26:03.353 : en:(07)00:26:03:353
00:30:57.438 : en:(08)00:30:57:438
00:37:07.099 : en:(09)00:37:07:099
00:40:43.440 : en:(10)00:40:43:440
00:44:31.751 : en:(11)00:44:31:751
00:51:40.429 : en:(12)00:51:40:429
00:55:40.378 : en:(13)00:55:40:378
01:00:48.268 : en:(14)01:00:48:268
01:03:37.855 : en:(15)01:03:37:855
01:09:19.822 : en:(16)01:09:19:822
01:13:39.162 : en:(17)01:13:39:162
01:17:07.372 : en:(18)01:17:07:372
01:21:52.363 : en:(19)01:21:52:363
01:28:19.167 : en:(20)01:28:19:167
01:32:43.430 : en:(21)01:32:43:430
01:36:12.140 : en:(22)01:36:12:140
01:48:32.171 : en:(23)01:48:32:171
Скріншоти




Джерела:
Звук та опис:Реліз Hanway
Відео:NNNB


 Трекер:    Зареєстрований   

Завантажити / скачати мультфільм українською



відео для новачків



 Зареєстрований:   2016-08-15 19:44
 Розмір:   4.12 GB 
 Оцінка мультфільму:   9.7/10 (Голосів: 48)
   
Інші релізи
   Зоотрополіс / Zootopia (2016) AVC Ukr/Eng | Sub Ukr/Eng BASTERD-94  8 / 1   2.18 GB   2017-01-01 23:30 
   Зоотрополіс / Zootopia (2016) Ukr/Eng BASTERD-94  19 / 1   2.18 GB   2016-12-31 21:30 
   Зоотрополіс / Zootopia (2016) Remux 1080p Ukr/Eng | Sub Ukr/Eng 11FrYkT  9 / 0   26.41 GB   2016-06-30 20:54 
   Зоотрополіс / Zootopia (2016) AVC Nikson  20 / 0   2.01 GB   2016-06-27 19:06 
   Зоотрополіс / Zootopia (2016) 1080p 3D [HalfOverUnder] Ukr/Eng | Sub Ukr/Eng -VipeR-  2 / 0   8.84 GB   2016-06-27 11:11 
   Зоотрополіс / Zootopia (2016) 720p Ukr/Eng | Sub Ukr/Eng Hanway  24 / 2   3.51 GB   2016-06-26 19:24 
   Зоотрополіс / Zootopia (2016) 1080p Ukr/Eng | Sub Ukr/Eng Hanway  38 / 1   8.38 GB   2016-06-26 18:06 
   Зоотрополіс / Zootopia (2016) Gelios  71 / 1   1.45 GB   2016-06-26 15:18 
SilentBoss 
Частий відвідувач


З нами з: 19.01.11
Востаннє: 16.08.17
Повідомлень: 35

2016-08-15 21:45  
Не можу зрозуміти чому не йде роздача
sergiyko.5 
VIP


З нами з: 25.02.16
Востаннє: 23.08.17
Повідомлень: 1007

2016-08-15 21:48  
SilentBoss написано:
Не можу зрозуміти чому не йде роздача

Зупини торент, потім запусти через 5 секунд, інколи допомагає.

SilentBoss 
Частий відвідувач


З нами з: 19.01.11
Востаннє: 16.08.17
Повідомлень: 35

2016-08-16 11:32  
взагалі не зрозуміле твориться, то швидкість 3Мб(вночі почало роздавати) то 0(зранку вже не віддавало доки не перезавантажив uTorrent) тепер знову 0, користувач в якого пише 2,59(сидимо на одному провайдері) насправді завантажив вже весь мультик, роблю тест uTorrent-ом показує що все ок. можливо глюки нашого провайдера(як варіант сіре ір - одне на всіх абонентів декількох міст)
SilentBoss 
Частий відвідувач


З нами з: 19.01.11
Востаннє: 16.08.17
Повідомлень: 35

2016-08-27 20:00  
morr-all 
Новенький


З нами з: 27.06.11
Востаннє: 23.08.17
Повідомлень: 23

2017-05-21 13:31  
Як робити такі відео?
Wensun 
Свій


З нами з: 20.01.09
Востаннє: 21.08.17
Повідомлень: 76

2017-05-22 21:51  
а який смисл робити такі відео ? шоб вони виглядали як новини ?
Drool 
VIP


З нами з: 17.04.10
Востаннє: 23.08.17
Повідомлень: 1376

2017-05-23 17:13  
Wensun написано:
а який смисл робити такі відео ? шоб вони виглядали як новини ?
Щоб вони виглядали, як реальна жива картинка.
morr-all 
Новенький


З нами з: 27.06.11
Востаннє: 23.08.17
Повідомлень: 23

2017-05-27 20:03  
Спасибі, вже не треба. PotPlayer на льоту розмножує кадри у будь-якому відео-файлі
Drool 
VIP


З нами з: 17.04.10
Востаннє: 23.08.17
Повідомлень: 1376

2017-05-28 17:07  
morr-all написано:
Спасибі, вже не треба. PotPlayer на льоту розмножує кадри у будь-якому відео-файлі
Так, якщо вас влаштовують артефакти на більш менш динамічних сценах.
Lyolic 
Свій


З нами з: 04.08.09
Востаннє: 23.08.17
Повідомлень: 53

2017-05-28 18:36  
Drool
Все залежить від потужності відеокарти Happy

Drool 
VIP


З нами з: 17.04.10
Востаннє: 23.08.17
Повідомлень: 1376

2017-05-29 12:16  
Lyolic написано:
Все залежить від потужності відеокарти
Ні Wink (1) Від відеокарти залежать лаги або їх відсутність.
fridomfighter 
Новенький


З нами з: 01.12.16
Востаннє: 23.08.17
Повідомлень: 17

2017-06-03 20:35  
Класний мульт
Ваш часовий пояс: GMT + 2 Години

Нова тема   Відповісти