У пустелі смерті (Сезон 1) / Into the Badlands (Season 1) (2015) 1080p Ukr/Eng

Нові коментарі

Нова тема   Відповісти
Автор Повідомлення
dilnix 
Поважний учасник


З нами з: 22.07.12
Востаннє: 16.08.19
Повідомлень: 170

2016-08-15 17:54  
У пустелі смерті (Сезон 1) / Into the Badlands (Season 1) (2015) 1080p Ukr/Eng

У пустелі смерті (Сезон 1) / Into the Badlands (Season 1) (2015) 1080p Ukr/Eng

Жанр: екшн, пригодницький, драма
Країна: США



Кінокомпанія: AMC
Режисер: Девід Добкін
Актори: Деніел Ву, Орла Брейді, Сара Болгар, Араміс Найт, Емілі Бічем, Олівер Старк, Мадлен Манток, Елі Еонідес, Мартон Чокаш та інші

Сюжет:
Війни були так давно, що їх ніхто не пам'ятає. Темрява і страх панували тут, поки не з'явилися барони. Семеро чоловіків і жінок перетворили хаос на лад, люди стікалися до них у пошуках захисту, але захист обернувся рабством. Вони заборонили вогнепальну зброю і створили армії вбивць, яких назвали різниками. Цей світ заснований на крові, невинних тут немає. Ласкаво просимо в пустелю смерті.
Перелік серій
Into the Badlands. Season 1, Episode 1. The Fort
Into the Badlands. Season 1, Episode 2. Fist Like a Bullet
Into the Badlands. Season 1, Episode 3. White Stork Spreads Wings
Into the Badlands. Season 1, Episode 4. Two Tigers Subdue Dragons
Into the Badlands. Season 1, Episode 5. Snake Creeps Down
Into the Badlands. Season 1, Episode 6. Hand of Five Poisons
Тривалість: 1 серія: ~44 хв. (цілком серій: 6)
Якість: 1080p
Відео:
розмір кадру: 1916 х 1076
бітрейт: ~5100 кб/с

Аудіо # 1:
мова: українська
переклад: багатоголосий закадровий
кодек: 2.0
бітрейт: 192 кб/с

Аудіо # 2:
мова: англійська
переклад: оригінал
кодек: 5.1
бітрейт: 384 кб/с

Субтитри # 1:
мова: англійська
тип: програмні (м'які)
формат: *.srt
Скріншоти




Info
General
Unique ID : 183269112104179676343406590171980324291 (0x89E058DAC6E0D7E7A5F900246A895DC3)
Complete name : Into.the.Badlands.S01E01.1080p..Ukr[AMC].Eng.
Format :
Format version : Version 4 / Version 2
File size : 1.75 GiB
Duration : 44 min
Overall bit rate : 5 679 kb/s
Encoded date : UTC 2016-08-15 12:17:54
Writing application : v9.2.0 ('Photograph') 64bit
Writing library : libebml v1.3.3 + v1.4.4

Video
ID : 1
Format : AVC
Format/Info : Advanced Video Codec
Format profile : [email protected]
Format settings, CABAC : Yes
Format settings, ReFrames : 4 frames
Codec ID : V_MPEG4/ISO/AVC
Duration : 44 min
Bit rate : 5 100 kb/s
Width : 1 916 pixels
Height : 1 076 pixels
Display aspect ratio : 16:9
Frame rate mode : Constant
Frame rate : 23.976 (24000/1001) FPS
Color space : YUV
Chroma subsampling : 4:2:0
Bit depth : 8 bits
Scan type : Progressive
Bits/(Pixel*Frame) : 0.103
Stream size : 1.57 GiB (90%)
Language : English
Default : Yes
Forced : No
Color range : Limited
Color primaries : BT.709
Transfer characteristics : BT.709
Matrix coefficients : BT.709

Audio #1
ID : 2
Format : AC-3
Format/Info : Audio Coding 3
Mode extension : CM (complete main)
Format settings, Endianness : Big
Codec ID : A_AC3
Duration : 44 min
Bit rate mode : Constant
Bit rate : 192 kb/s
Channel(s) : 2 channels
Channel positions : Front: L R
Sampling rate : 48.0 kHz
Frame rate : 31.250 FPS (1536 spf)
Compression mode : Lossy
Stream size : 60.4 MiB (3%)
Language : Ukrainian
Default : Yes
Forced : No

Audio #2
ID : 3
Format : AC-3
Format/Info : Audio Coding 3
Mode extension : CM (complete main)
Format settings, Endianness : Big
Codec ID : A_AC3
Duration : 44 min
Bit rate mode : Constant
Bit rate : 384 kb/s
Channel(s) : 6 channels
Channel positions : Front: L C R, Side: L R, LFE
Sampling rate : 48.0 kHz
Frame rate : 31.250 FPS (1536 spf)
Compression mode : Lossy
Stream size : 121 MiB (7%)
Language : English
Default : No
Forced : No

Text
ID : 4
Format : UTF-8
Codec ID : S_TEXT/UTF8
Codec ID/Info : UTF-8 Plain Text
Duration : 41 min
Bit rate : 36 b/s
Count of elements : 365
Stream size : 11.1 KiB (0%)
Language : English
Default : No
Forced : No
Джерело та подяки: & , запис звуку і синхронізація: slavik_v_z


Бронзовий реліз (на рейтинг впливає 75% завантаженого)
 Трекер:    Зареєстрований   

Завантажити / скачати серіал українською



відео для новачків



 Зареєстрований:   2016-08-15 17:54
 Розмір:   10.14 GB 
 Оцінка серіалу:   9.5/10 (Голосів: 22)
 torrent
   
11FrYkT 
Модератор відео


З нами з: 20.02.11
Востаннє: 19.08.19
Повідомлень: 6133

2016-08-15 19:40  
dilnix , Скріншоти мають бути у форматі png Як зробити скріншоти, також оформіть інформацію про субтитри за зразком
код для IMDB
Код:
[url=http://www.imdb.com/title/tt3865236/][img]http://hurtom.com/imdb/tt3865236.png[/img][/url]

-VipeR- 
VIP


З нами з: 17.07.08
Востаннє: 18.08.19
Повідомлень: 297

2016-08-16 12:10  
Дякую, я майже втратив надію Happy
ALFROMEDA 
Відео Гуртом - підтримка та поширення
Відео Гуртом - підтримка та поширення


З нами з: 09.07.12
Востаннє: 19.08.19
Повідомлень: 348

2016-08-16 18:19  
Крутий серіал.
Дякую за реліз та 1080p

vatanuki 
Свій


З нами з: 23.09.11
Востаннє: 15.08.19
Повідомлень: 97

2017-03-30 11:36  
Качав тиждень тільки дві серії( Кинув
Wensun 
Свій


З нами з: 20.01.09
Востаннє: 17.08.19
Повідомлень: 134

2019-02-11 01:29  
не серіал, а суцільне занудство.. діалоги ні про шо... 3/10
boombyte 
Свій


З нами з: 12.04.14
Востаннє: 31.07.19
Повідомлень: 131

2019-04-30 12:36  
Все нічого, проте деякі бойові сцени безнадійно тупі.
Загалом (поки тільки 1й сезон) цікава (певною мірою) своєрідна фантастика. Зроблено якісно. Це не ГраП, але рівень норм.
Шкода, що починали зі звичайних бойових сцен, а продовжують китайськими реактивними.

0mage0 
VIP


З нами з: 06.10.15
Востаннє: 19.08.19
Повідомлень: 480

2019-08-04 13:30  
Цікавий початок серіалу, хоча усі персонажі огидні, окрім Вдови. Дивлюся другий сезон, щоб дізнатися, чим цей бардак закінчиться Happy
В усіх боях (без "темних") якщо є регент або барон — він рубає всіх "звичайних" рубак, скільки б їх не було одночасно, витрачаючи на кожного секунд 5 максимум. Взагалі незрозуміло, за таких розкладів, навіщо нацьковувати "звичайних" рубак на регентів і навіщо вони на це погоджуються, адже вони просто м'ясо. При цьому Тільда, яка на рівні регента (я так розумію, вона аналог регента у Вдови), не могла впоратися зі сраним адептом, коли він зачинився з нею в клітці...

Ваш часовий пояс: GMT + 2 Години

Нова тема   Відповісти