Подвійний Джей / Double J (1-11 з 11) (2011) HDTV 720p Ukr/Jap | Sub Ukr

Нові коментарі

Нова тема   Відповісти
Автор Повідомлення
Orotandr 
Відео Гуртом - озвучення
Відео Гуртом - озвучення


З нами з: 22.09.11
Востаннє: 18.08.17
Повідомлень: 36

2016-08-15 17:03  
Подвійний Джей / Double J (1-11 з 11) (2011) HDTV 720p Ukr/Jap | Sub Ukr

Подвійний Джей / Double J (1-11 з 11) (2011) HDTV 720p Ukr/Jap | Sub Ukr


Жанр: Комедія
Країна: Японія



Кінокомпанія: DLE
Режисер: Тані Адзума
Ролі озвучували: Охаші Аюру, Катоу Емірі, Оміґава Чіакі
Сюжет:
Історія про те, як школярки зберігають традиційні японські мистецтва стругаючи зубочистки.


Тривалість: 1 серія: ~4 хв (всього серій: 11)
Перелік серій

01-Чи збереглись традиції?
02-Традиції йдуть у безстрокову відпустку
03-І що нам з цими традиціями робити?
04-Та кому треба ваші зубочистки?
05-Невже шукати зубочистки в підземеллі-неправильно?
06-Хаджіме і 7 зубочисток.
07-Зубочистки завдають удару у відповідь.
08-Пролітаючи над зубочистковим заводом.
09-1000 і 1 зубочистка.
10-Зубочистка. Судний день.
11-Орбітальний апарат "Зубочистка"
Якість:
Відео:
кодек:
розмір кадру: 1280 х 720
бітрейт: ~1900 кб/с

Аудіо # 1:
мова: українська
переклад: двоголосий закадровий
кодек: 2.0
бітрейт: 192 кб/с

Аудіо # 2:
мова: японська
переклад: оригінал
кодек: 2.0
бітрейт: 192 кб/с

Субтитри # 1:
мова: українська
тип: програмні (м'які), написи
формат: *.ass

Субтитри # 2:
мова: українська
тип: програмні (м'які)
формат: *.ass, повні
Info
General
Unique ID : 199486910084804867593017352022806662010 (0x9613C8078203A4F2A833403F9E0A8B7A)
Complete name : D:\Now\Double-J\[PNP] Doubje-J - 01 [720p] [Orotandr&Rina Grey].
Format :
Format version : Version 4 / Version 2
File size : 68.3 MiB
Duration : 4mn 0s
Overall bit rate : 2 385 Kbps
Encoded date : UTC 2016-07-27 19:10:17
Writing application : mkvmerge v9.1.0 ('Little Earthquakes') 64bit
Writing library : libebml v1.3.3 + libmatroska v1.4.4
Attachments : Carlito Bold Italic.ttf / Carlito Bold.ttf / Carlito Italic.ttf / Carlito Regular.ttf / Tusch Touch 2_cyrK_fixed.ttf / BF Mnemonika Regular.ttf

Video
ID : 1
Format : AVC
Format/Info : Advanced Video Codec
Format profile : [email protected]
Format settings, CABAC : Yes
Format settings, ReFrames : 16 frames
Codec ID : V_MPEG4/ISO/AVC
Duration : 4mn 0s
Bit rate : 1 901 Kbps
Width : 1 280 pixels
Height : 720 pixels
Display aspect ratio : 16:9
Frame rate mode : Constant
Frame rate : 29.970 (30000/1001) fps
Color space : YUV
Chroma subsampling : 4:2:0
Bit depth : 8 bits
Scan type : Progressive
Bits/(Pixel*Frame) : 0.069
Stream size : 54.4 MiB (80%)
Writing library : core 115 r2008+578 3864dbe
Encoding settings : cabac=1 / ref=16 / deblock=1:1:1 / analyse=0x3:0x113 / me=umh / subme=10 / psy=1 / fade_compensate=0.75 / psy_rd=0.40:0.00 / mixed_ref=1 / me_range=64 / chroma_me=1 / trellis=2 / 8x8dct=1 / cqm=0 / deadzone=21,11 / fast_pskip=0 / chroma_qp_offset=-2 / threads=12 / sliced_threads=0 / nr=0 / decimate=1 / interlaced=0 / bluray_compat=0 / constrained_intra=0 / fgo=6 / bframes=16 / b_pyramid=2 / b_adapt=1 / b_bias=0 / direct=3 / weightb=1 / open_gop=0 / weightp=2 / keyint=250 / keyint_min=25 / scenecut=40 / intra_refresh=0 / rc_lookahead=100 / rc=crf / mbtree=1 / crf=18.0 / qcomp=0.60 / qpmin=0 / qpmax=69 / qpstep=4 / ip_ratio=1.40 / aq=1:0.60
Default : Yes
Forced : No
Color range : Limited
Matrix coefficients : BT.709

Audio #1
ID : 2
Format :
Format/Info : Advanced Audio Codec
Format profile : LC
Codec ID : A_AAC
Duration : 4mn 0s
Bit rate : 192 Kbps
Channel(s) : 2 channels
Channel positions : Front: L R
Sampling rate : 48.0 KHz
Frame rate : 46.875 fps (1024 spf)
Compression mode : Lossy
Stream size : 5.42 MiB (8%)
Language : Ukrainian
Default : Yes
Forced : No

Audio #2
ID : 3
Format :
Format/Info : Advanced Audio Codec
Format profile : LC
Codec ID : A_AAC
Duration : 4mn 0s
Bit rate : 192 Kbps
Channel(s) : 2 channels
Channel positions : Front: L R
Sampling rate : 48.0 KHz
Frame rate : 46.875 fps (1024 spf)
Compression mode : Lossy
Stream size : 5.40 MiB (8%)
Language : Japanese
Default : No
Forced : No

Text #1
ID : 4
Format : ASS
Codec ID : S_TEXT/ASS
Codec ID/Info : Advanced Sub Station Alpha
Duration : 3mn 59s
Bit rate : 372 bps
Count of elements : 110
Compression mode : Lossless
Stream size : 10.9 KiB (0%)
Title : Написи
Language : Ukrainian
Default : Yes
Forced : No

Text #2
ID : 5
Format : ASS
Codec ID : S_TEXT/ASS
Codec ID/Info : Advanced Sub Station Alpha
Duration : 3mn 59s
Bit rate : 652 bps
Count of elements : 178
Compression mode : Lossless
Stream size : 19.1 KiB (0%)
Title : Повні
Language : Ukrainian
Default : No
Forced : No
Скріншоти







Джерело: Ponashomu Production
Озвучення: Orotandr, Rina Grey
Переклад: Mister_WHAT_
Редакція: Kotobenko
Робота зі звуком: Orotandr
Особиста оцінка: 8 - мені сподобалося


Авторський реліз (завантажувати можна без реєстрації)
 Трекер:    Зареєстрований   

Завантажити / скачати аніме українською



відео для новачків



 Зареєстрований:   2016-10-25 20:56
 Розмір:   716 MB 
 Оцінка аніме:   7.8/10 (Голосів: 4)
   
R.G.All_Coders 
VIP


З нами з: 14.09.13
Востаннє: 17.08.17
Повідомлень: 278

2016-09-01 11:26  
https://toloka.to/t46194#torrent -посідуете?
Orotandr 
Відео Гуртом - озвучення
Відео Гуртом - озвучення


З нами з: 22.09.11
Востаннє: 18.08.17
Повідомлень: 36

2016-09-02 16:04  
Додано 4 серію. Прошу перенести реліз в правильний розділ, в контейнері є укр озвучення.
bot 
робот


З нами з: 30.09.07
Востаннє: 26.05.05
Повідомлень: 17365

2016-09-02 22:10  
Тему перенесено з Аніме до форуму Аніме


Dark Invader

Orotandr 
Відео Гуртом - озвучення
Відео Гуртом - озвучення


З нами з: 22.09.11
Востаннє: 18.08.17
Повідомлень: 36

2016-09-08 20:59  
Додав шосту, змінив п'яту на правильну.
Orotandr 
Відео Гуртом - озвучення
Відео Гуртом - озвучення


З нами з: 22.09.11
Востаннє: 18.08.17
Повідомлень: 36

2016-10-05 15:16  
Додав дев'яту, змінив сьому і восьму на правильні.
Orotandr 
Відео Гуртом - озвучення
Відео Гуртом - озвучення


З нами з: 22.09.11
Востаннє: 18.08.17
Повідомлень: 36

2016-10-25 21:07  
Проект завершено, приємного перегляду.
EvGaS 
Відео Гуртом - підтримка та поширення
Відео Гуртом - підтримка та поширення


З нами з: 27.02.12
Востаннє: 18.08.17
Повідомлень: 3332

2016-10-26 05:17  
Якесь воно емм… трохи впороте. Встиг 2 рази заснути, не моє. Happy
Трешачкова комедія, копіююча телепрограми про пригоди світом.

Ваш часовий пояс: GMT + 2 Години

Нова тема   Відповісти