У пустелі смерті (Сезон 1) / Into the Badlands (Season 1) (2015) 720p Ukr/Eng

Нові коментарі

Нова тема   Відповісти
Автор Повідомлення
krigg070 
Відео Гуртом - фільмокрай
Відео Гуртом - фільмокрай


З нами з: 29.10.14
Востаннє: 03.12.20
Повідомлень: 1819

2016-08-14 12:01  
У пустелі смерті (Сезон 1) / Into the Badlands (Season 1) (2015) 720p Ukr/Eng

У пустелі смерті (Сезон 1) / Into the Badlands (Season 1) (2015) 720p Ukr/Eng

Жанр: екшн, пригодницький, драма
Країна: США



Кінокомпанія: AMC
Режисер: Девід Добкін
Актори: Деніел Ву, Орла Брейді, Сара Болгар, Араміс Найт, Емілі Бічем, Олівер Старк, Мадлен Манток, Елі Еонідес, Мартон Чокаш та інші

Сюжет:
Війни були так давно, що їх ніхто не пам'ятає. Темрява і страх панували тут, поки не з'явилися барони. Семеро чоловіків і жінок перетворили хаос на лад, люди стікалися до них у пошуках захисту, але захист обернувся рабством. Вони заборонили вогнепальну зброю і створили армії вбивць, яких назвали різниками. Цей світ заснований на крові, невинних тут немає. Ласкаво просимо в пустелю смерті.
Перелік серій
    Into the Badlands. Season 1, Episode 1. The Fort
    Into the Badlands. Season 1, Episode 2. Fist Like a Bullet
    Into the Badlands. Season 1, Episode 3. White Stork Spreads Wings
    Into the Badlands. Season 1, Episode 4. Two Tigers Subdue Dragons
    Into the Badlands. Season 1, Episode 5. Snake Creeps Down
    Into the Badlands. Season 1, Episode 6. Hand of Five Poisons
Тривалість: 1 серія: ~ 44 хв. (цілком серій: 6)
Якість: 720p
Відео:
розмір кадру: 1280 х 718
бітрейт: ~ 3 800 кб/с

Аудіо # 1:
мова: українська
переклад: багатоголосий закадровий
кодек: 2.0
бітрейт: 192 кб/с

Аудіо # 2:
мова: англійська
переклад: оригінал
кодек: 5.1
бітрейт: 384 кб/с
Скріншоти
Info
Код:
General
Unique ID                      : 239965577765639537419664821951587498726 (0xB487B06E5E8EE920B1551CE8448D3AE6)
Complete name                  : D:\Films\Into.the.Badlands.S01..720p.Ukr.Eng\Into.the.Badlands.2015.S01E01..720p.ukr_eng.
Format                         :
Format version                 : Version 2
File size                      : 1.37 GiB
Duration                       : 44mn 0s
Overall bit rate               : 4 461 Kbps
Encoded date                   : UTC 2016-08-14 06:30:53
Writing application            : v3.3.0 ('Language') built on Mar 24 2010 14:59:24
Writing library                : libebml v0.8.0 + v0.9.0

Video
ID                             : 1
Format                         : AVC
Format/Info                    : Advanced Video Codec
Format profile                 : [email protected]
Format settings, CABAC         : No
Format settings, ReFrames      : 2 frames
Codec ID                       : V_MPEG4/ISO/AVC
Duration                       : 44mn 0s
Bit rate                       : 3 796 Kbps
Width                          : 1 280 pixels
Height                         : 718 pixels
Display aspect ratio           : 16:9
Frame rate mode                : Constant
Frame rate                     : 23.976 (24000/1001) fps
Color space                    : YUV
Chroma subsampling             : 4:2:0
Bit depth                      : 8 bits
Scan type                      : Progressive
Bits/(Pixel*Frame)             : 0.172
Stream size                    : 1.17 GiB (85%)
Language                       : English
Default                        : No
Forced                         : No
Color range                    : Limited
Color primaries                : BT.709
Transfer characteristics       : BT.709
Matrix coefficients            : BT.709

Audio #1
ID                             : 2
Format                         : AC-3
Format/Info                    : Audio Coding 3
Mode extension                 : CM (complete main)
Format settings, Endianness    : Big
Codec ID                       : A_AC3
Duration                       : 44mn 0s
Bit rate mode                  : Constant
Bit rate                       : 192 Kbps
Channel(s)                     : 2 channels
Channel positions              : Front: L R
Sampling rate                  : 48.0 KHz
Frame rate                     : 31.250 fps (1536 spf)
Compression mode               : Lossy
Stream size                    : 60.4 MiB (4%)
Title                          : 2.0 @ 192 kbps - AMC
Language                       : Ukrainian
Default                        : Yes
Forced                         : No

Audio #2
ID                             : 3
Format                         : AC-3
Format/Info                    : Audio Coding 3
Mode extension                 : CM (complete main)
Format settings, Endianness    : Big
Codec ID                       : A_AC3
Duration                       : 44mn 0s
Bit rate mode                  : Constant
Bit rate                       : 384 Kbps
Channel(s)                     : 6 channels
Channel positions              : Front: L C R, Side: L R, LFE
Sampling rate                  : 48.0 KHz
Frame rate                     : 31.250 fps (1536 spf)
Compression mode               : Lossy
Stream size                    : 121 MiB (9%)
Title                          : 5.1 @ 384 kbps - Original
Language                       : English
Default                        : No
Forced                         : No
Джерело та подяки: & , запис звуку і синхронізація: slavik_v_z


Бронзовий реліз (на рейтинг впливає 75% завантаженого)
 Трекер:    Зареєстрований   

Завантажити / скачати серіал українською



відео для новачків



 Зареєстрований:   2016-08-14 12:01
 Розмір:   8.14 GB 
 Оцінка серіалу:   9.5/10 (Голосів: 22)
   
Bod_zik99 
VIP


З нами з: 28.12.13
Востаннє: 03.12.20
Повідомлень: 1442

2016-08-14 12:07  
О, дуже вдячний, скоро заберу.
Wizard_Harry 
Свій


З нами з: 11.10.13
Востаннє: 29.11.20
Повідомлень: 112

2016-08-14 19:11  
Дякую. Незвичайний серіал, є в ньому щось цікаве.
Zombie35 
Поважний учасник


З нами з: 25.07.12
Востаннє: 17.11.20
Повідомлень: 198

2016-08-17 11:05  
Серіал класний. Схоже на гру престолів тільки краще.
Коли 2 сезон?

Estranded 
VIP


З нами з: 09.02.14
Востаннє: 03.12.20
Повідомлень: 1528

2016-08-18 15:19  
Ура, 720р, дякуюHappy Респект!
feanorhate 
Частий відвідувач


З нами з: 10.02.12
Востаннє: 02.12.20
Повідомлень: 39

2017-02-07 12:15  
номади?? ну чому завжди треба взяти і все запороти такими дибілізмами. це слово не прекладається? чому тоді не кліпери, а різники? Вдову теж можна було залишити відов)) дитячий садочок
tgb 
Свій


З нами з: 31.08.12
Востаннє: 01.12.20
Повідомлень: 67

2020-08-31 16:44  
який це постапокаліпсис?((, 500 років минуло а в них вся техніка справна аж блищить, гоняють на байках хромованих, паливо в достатку), маєтки шикарні зовні і всередині, а їжа взагалі не проблема бо вирощують виключно мак.... але при цьому весь серіал бідненьки патякають про виживання людства... а бойові сцени без законів фізики... я зрозумів це комедія...
don pedro 
Попереджень: 1
Попереджень: 1 


З нами з: 29.06.11
Востаннє: 03.12.20
Повідомлень: 18234

2020-08-31 18:17  
tgb
Ви, для чогось, виклали цей самий комент вісім (!) разів поспіль.

Ваш часовий пояс: GMT + 2 Години

Нова тема   Відповісти