Доктор Блейк (Сезон 1) / The Doctor Blake Mysteries (Season 1) (2013) 720p Ukr/Eng

Нові коментарі

Нова тема   Відповісти
Останній раз роздавалося don pedro (2017-10-18)
Автор Повідомлення
krigg070 
Відео Гуртом - фільмокрай
Відео Гуртом - фільмокрай


З нами з: 29.10.14
Востаннє: 21.08.19
Повідомлень: 1578

2016-08-11 12:39  
Доктор Блейк (Сезон 1) / The Doctor Blake Mysteries (Season 1) (2013) 720p Ukr/Eng


Жанр: детектив
Країна: Австралія



Кінокомпанія: British Broadcasting Corporation (BBC)
Режисер: Ендрю Проус
Актори: Крейґ МакЛоклен, Надін Ґарнер, Кейт Вулф, Джоель Тобек, Чарлі Казінс, Белінда МакКлорі, Джон Вуд, Рік Дональд, Єн Руні, Крейґ Хол та інші

Сюжет:
Доктор Люсьєн Блейк покинув рідне містечко Балларат ще молодим. Зараз він повертається в нього, щоб успадкувати медичну практику свого батька з викликами на місця злочину. У 1959-му році багатств часів золотої лихоманки, якій він зобов'язаний своєю розкішною архітектурою, у місті давно немає, але таємниці, вбивства й обман, залишилися ще із часів його колишньої слави.
Перелік серій
    01. У стоячій воді (Still Waters)
    02. Найбільша користь (The Greater Good)
    03. Комівояжер - (Death of a Travelling Salesman)
    04. Братерська любов - (Brotherly Love)
    05. Серця і квіти - (Hearts and Flowers)
    06. Якщо взуття за розміром - (If the Shoe Fits)
    07. Бедлам - (Bedlam)
    08. Ігри чемпіонів - (Game of Champions)
    09. Усе це золото - (All That Glitters)
    10. Чий то син, чиясь дочка - (Someone's Son, Someone's Daughter)
Тривалість: 1 серія: ~57 хв. (цілком серій: 10)
Якість: 720p
Відео:
розмір кадру: 1280 х 720
бітрейт: ~4100 кб/с

Аудіо # 1:
мова: українська
переклад: багатоголосий закадровий
кодек: 2.0 (стерео)
бітрейт: 192 кб/с

Аудіо # 2:
мова: англійська
переклад: оригінал
кодек: 5.1
бітрейт: 384 кб/с
Скріншоти
Info
Код:
General
Unique ID                      : 251952360893988210972315068567841679577 (0xBD8C4277CC66A9EE9011E47A450828D9)
Complete name                  : D:\Films\The.Doctor.Blake.Mysteries.2013.S01..720p.UKR_ENG\The.Doctor.Blake.Mysteries.2013.S01E01..720p.ukr_eng.
Format                         :
Format version                 : Version 2
File size                      : 1.83 GiB
Duration                       : 53mn 32s
Overall bit rate               : 4 888 Kbps
Movie name                     : Доктор Блейк | Сезон 1. Епізод 1: У стоячій воді
Encoded date                   : UTC 2016-08-11 08:36:48
Writing application            : v3.3.0 ('Language') built on Mar 24 2010 14:59:24
Writing library                : libebml v0.8.0 + v0.9.0

Video
ID                             : 1
Format                         : AVC
Format/Info                    : Advanced Video Codec
Format profile                 : [email protected]
Format settings, CABAC         : Yes
Format settings, ReFrames      : 5 frames
Codec ID                       : V_MPEG4/ISO/AVC
Duration                       : 53mn 32s
Bit rate                       : 4 310 Kbps
Width                          : 1 280 pixels
Height                         : 720 pixels
Display aspect ratio           : 16:9
Frame rate mode                : Constant
Frame rate                     : 25.000 fps
Color space                    : YUV
Chroma subsampling             : 4:2:0
Bit depth                      : 8 bits
Scan type                      : Progressive
Bits/(Pixel*Frame)             : 0.187
Stream size                    : 1.58 GiB (86%)
Writing library                : core 132 r2310 76a5c3a
Encoding settings              : cabac=1 / ref=5 / deblock=1:0:0 / analyse=0x3:0x133 / me=umh / subme=8 / psy=1 / psy_rd=1.00:0.00 / mixed_ref=1 / me_range=16 / chroma_me=1 / trellis=1 / 8x8dct=1 / cqm=0 / deadzone=21,11 / fast_pskip=0 / chroma_qp_offset=-2 / threads=12 / lookahead_threads=2 / sliced_threads=0 / nr=0 / decimate=1 / interlaced=0 / bluray_compat=0 / constrained_intra=0 / bframes=3 / b_pyramid=2 / b_adapt=1 / b_bias=0 / direct=1 / weightb=1 / open_gop=0 / weightp=2 / keyint=250 / keyint_min=25 / scenecut=40 / intra_refresh=0 / rc_lookahead=40 / rc=2pass / mbtree=1 / bitrate=4310 / ratetol=1.0 / qcomp=0.60 / qpmin=0 / qpmax=69 / qpstep=4 / cplxblur=20.0 / qblur=0.5 / ip_ratio=1.40 / aq=1:1.00
Language                       : English
Default                        : No
Forced                         : No

Audio #1
ID                             : 2
Format                         : AC-3
Format/Info                    : Audio Coding 3
Mode extension                 : CM (complete main)
Format settings, Endianness    : Big
Codec ID                       : A_AC3
Duration                       : 53mn 32s
Bit rate mode                  : Constant
Bit rate                       : 192 Kbps
Channel(s)                     : 2 channels
Channel positions              : Front: L R
Sampling rate                  : 48.0 KHz
Frame rate                     : 31.250 fps (1536 spf)
Compression mode               : Lossy
Stream size                    : 73.5 MiB (4%)
Title                          : 2.0 @ 192 kbps - НТН
Language                       : Ukrainian
Default                        : Yes
Forced                         : No

Audio #2
ID                             : 3
Format                         : AC-3
Format/Info                    : Audio Coding 3
Mode extension                 : CM (complete main)
Format settings, Endianness    : Big
Codec ID                       : A_AC3
Duration                       : 53mn 32s
Bit rate mode                  : Constant
Bit rate                       : 384 Kbps
Channel(s)                     : 6 channels
Channel positions              : Front: L C R, Side: L R, LFE
Sampling rate                  : 48.0 KHz
Frame rate                     : 31.250 fps (1536 spf)
Compression mode               : Lossy
Stream size                    : 147 MiB (8%)
Title                          : 5.1 @ 384 kbps - Original
Language                       : English
Default                        : No
Forced                         : No
Джерело: &
Дякую slavik_v_z за доріжки до серій №3-10.


Бронзовий реліз (на рейтинг впливає 75% завантаженого)
 Трекер:    Зареєстрований   

Завантажити / скачати серіал українською



відео для новачків



 Зареєстрований:   2016-08-18 23:25
 Розмір:   18.18 GB 
 Оцінка серіалу:   9.9/10 (Голосів: 7)
   
krigg070 
Відео Гуртом - фільмокрай
Відео Гуртом - фільмокрай


З нами з: 29.10.14
Востаннє: 21.08.19
Повідомлень: 1578

2016-08-12 21:23  
Бачу серіал зайшов на УРА. "Всі так вантажать, аж гай шумить"
don pedro 
Попереджень: 2
Попереджень: 2 


З нами з: 29.06.11
Востаннє: 22.08.19
Повідомлень: 14225

2016-08-12 22:21  
krigg070
Я чекаю на весь сезон (і краще меншого розміру), а потім вже аж завантажу. Думаю, більшість інших зацікавлених робитиме так само.

олег тягнибок 
Новенький


З нами з: 24.04.12
Востаннє: 18.08.19
Повідомлень: 3

2016-08-13 00:45  
Саме так. Чекаю повного сезону.
Дякую за роздачу!

Estranded 
VIP


З нами з: 09.02.14
Востаннє: 21.08.19
Повідомлень: 1395

2016-08-18 16:23  
Як історична складова серіялу? У дусі тих часів?
krigg070 
Відео Гуртом - фільмокрай
Відео Гуртом - фільмокрай


З нами з: 29.10.14
Востаннє: 21.08.19
Повідомлень: 1578

2016-08-18 23:26  
+ 3-10 серії
Ваш часовий пояс: GMT + 2 Години

Нова тема   Відповісти