Angry Birds в кіно / The Angry Birds Movie (2016) 1080p 3D [HalfOverUnder] Ukr/Eng | Sub Ukr/Eng

Нові коментарі

Нова тема   Відповісти
Автор Повідомлення
-VipeR- 
VIP


З нами з: 17.07.08
Востаннє: 20.08.17
Повідомлень: 289

2016-08-05 13:52  
Angry Birds в кіно / The Angry Birds Movie (2016) 1080p 3D [HalfOverUnder] Ukr/Eng | Sub Ukr/Eng

Angry Birds в кіно / The Angry Birds Movie (2016) 1080p 3D [HalfOverUnder] Ukr/Eng | Sub Ukr/Eng

Всі постери












повнорозмірні зображення відкриються по кліку (з натиснутим CTRL чи кліком середньою кнопкою мишки - у новій вкладці)


Жанр: комедія, бойовик, сімейний
Країна: США, Фінляндія



Кінокомпанія: Columbia Pictures, LStar Capital, Rovio Animation, Rovio Entertainment, Rovio Mobile, Sony Pictures Animation, Sony Pictures Imageworks, Village Roadshow Pictures
Режисер: Клей Кейтіс, Фергал Рейлі
Актори: Джейсон Судейкіс, Пітер Дінклейдж, Білл Хейдер, Денні МакБрайд, Майя Рудольф, Джош Гад, Джилліан Белл, Айк Барінхолц

Сюжет:
На чудовому острові посеред океану живуть дивовижні герої. Одним з основних персонажів є симпатична і нешкідлива на вигляд пташка на ім'я Ред. Але у Реда великі проблеми - він ніяк не може впоратися зі своїм роздратуванням і злістю. Всі його дратують. Пташеня щиро бореться зі своїми недоліками, але якщо чесно, виходить у нього геть погано. Будь-яка ситуація, що викликає негатив, змушує Реда лютувати. Хлопець навіть записався на курси з управління гніву. У нього є друг Чак, який також не може похвалитися характером, щось божевільне є в ньому. Ну а про Бомба і зовсім добавить нечего. У нього є незвичайна здатність вибухати, як тільки трапляється щось несподіване або страшне. До всього, в один прекрасний день до острова причалює підозрілий транспорт. На ньому прибули ... зелені свині. Так-так, саме зелені. І ось ці самі гості вирішили оселитися поруч з нервовими пташками. Таке сусідство зовсім не влаштовує Реда і його друзів. Наростав конфлікт, який загрожував обернутися справжньою війною ...


Тривалість: 01:37:13
Якість: 1080p 3D [HalfOverUnder] від I/N
Відео:
кодек:
розмір кадру: 1920 х 1080
бітрейт: 11,3 Мбіт/с

Аудіо # 1:
мова: українська
переклад: професійний дубльований
кодек: 5.1
бітрейт: 640 Кбіт/с

Аудіо # 2:
мова: англійська
переклад: оригінал
кодек: 5.1
бітрейт: 448 Кбіт/с

Субтитри:
мова: українська (Forced, Full)
тип: програмні (м'які)
формат: *.srt

Субтитри:
мова: англійська (Full, SDH)
тип: програмні (м'які)
формат: *.srt
Info
Код:
General
Unique ID                      : 218125411988243631614362844250161273589 (0xA4196D1F3E78E4B7929EE9BD78DFDAF5)
Complete name                  : D:\3D\Мультики\The Angry Birds Movie (2016) 1080p [HalfOverUnder][UKR_ENG] [Hurtom].
Format                         :
Format version                 : Version 4 / Version 2
File size                      : 8.43 GiB
Duration                       : 1h 37mn
Overall bit rate               : 12.4 Mbps
Movie name                     : Angry Birds у кіно (3D) (2016)
Encoded date                   : UTC 2016-09-10 07:01:37
Writing application            : mkvmerge v8.8.0 ('Wind at my back') 64bit
Writing library                : libebml v1.3.3 + libmatroska v1.4.4
Cover                          : Yes
Attachments                    : cover.jpg

Video
ID                             : 1
Format                         : AVC
Format/Info                    : Advanced Video Codec
Format profile                 : [email protected]
Format settings, CABAC         : Yes
Format settings, ReFrames      : 4 frames
Codec ID                       : V_MPEG4/ISO/AVC
Duration                       : 1h 37mn
Bit rate                       : 11.3 Mbps
Width                          : 1 920 pixels
Height                         : 1 080 pixels
Display aspect ratio           : 16:9
Frame rate mode                : Constant
Frame rate                     : 23.976 (24000/1001) fps
Color space                    : YUV
Chroma subsampling             : 4:2:0
Bit depth                      : 8 bits
Scan type                      : Progressive
Bits/(Pixel*Frame)             : 0.228
Stream size                    : 7.69 GiB (91%)
Title                          : rip by I/N
Writing library                : core 148 r2665 a01e339
Encoding settings              : cabac=1 / ref=4 / deblock=1:-3:-3 / analyse=0x3:0x133 / me=umh / subme=10 / psy=1 / psy_rd=1.00:0.15 / mixed_ref=1 / me_range=64 / chroma_me=1 / trellis=2 / 8x8dct=1 / cqm=0 / deadzone=21,11 / fast_pskip=0 / chroma_qp_offset=-3 / threads=12 / lookahead_threads=3 / sliced_threads=0 / nr=0 / decimate=1 / interlaced=0 / bluray_compat=0 / constrained_intra=0 / bframes=16 / b_pyramid=2 / b_adapt=2 / b_bias=0 / direct=3 / weightb=1 / open_gop=0 / weightp=2 / keyint=250 / keyint_min=23 / scenecut=40 / intra_refresh=0 / rc_lookahead=60 / rc=crf / mbtree=1 / crf=16.0 / qcomp=0.60 / qpmin=0 / qpmax=69 / qpstep=4 / vbv_maxrate=40000 / vbv_bufsize=30000 / crf_max=0.0 / nal_hrd=none / filler=0 / frame-packing=4 / ip_ratio=1.40 / aq=1:1.00
Default                        : Yes
Forced                         : No
Color range                    : Limited
Color primaries                : BT.709
Transfer characteristics       : BT.709
Matrix coefficients            : BT.709

Audio #1
ID                             : 2
Format                         : AC-3
Format/Info                    : Audio Coding 3
Mode extension                 : CM (complete main)
Format settings, Endianness    : Big
Codec ID                       : A_AC3
Duration                       : 1h 37mn
Bit rate mode                  : Constant
Bit rate                       : 640 Kbps
Channel(s)                     : 6 channels
Channel positions              : Front: L C R, Side: L R, LFE
Sampling rate                  : 48.0 KHz
Frame rate                     : 31.250 fps (1536 spf)
Compression mode               : Lossy
Stream size                    : 445 MiB (5%)
Title                          : 5.1 @ 640 kbps -  Blu-ray NORDiC
Language                       : Ukrainian
Default                        : Yes
Forced                         : Yes

Audio #2
ID                             : 3
Format                         : AC-3
Format/Info                    : Audio Coding 3
Mode extension                 : CM (complete main)
Format settings, Endianness    : Big
Codec ID                       : A_AC3
Duration                       : 1h 37mn
Bit rate mode                  : Constant
Bit rate                       : 448 Kbps
Channel(s)                     : 6 channels
Channel positions              : Front: L C R, Side: L R, LFE
Sampling rate                  : 48.0 KHz
Frame rate                     : 31.250 fps (1536 spf)
Compression mode               : Lossy
Stream size                    : 312 MiB (4%)
Title                          : 5.1 @ 448 kbps
Language                       : English
Default                        : No
Forced                         : No

Text #1
ID                             : 4
Format                         : UTF-8
Codec ID                       : S_TEXT/UTF8
Codec ID/Info                  : UTF-8 Plain Text
Duration                       : 1h 25mn
Bit rate                       : 2 bps
Count of elements              : 54
Stream size                    : 1.78 KiB (0%)
Title                          : Forced
Language                       : Ukrainian
Default                        : Yes
Forced                         : Yes

Text #2
ID                             : 5
Format                         : UTF-8
Codec ID                       : S_TEXT/UTF8
Codec ID/Info                  : UTF-8 Plain Text
Duration                       : 1h 29mn
Bit rate                       : 98 bps
Count of elements              : 1579
Stream size                    : 64.3 KiB (0%)
Title                          : Full
Language                       : Ukrainian
Default                        : No
Forced                         : No

Text #3
ID                             : 6
Format                         : UTF-8
Codec ID                       : S_TEXT/UTF8
Codec ID/Info                  : UTF-8 Plain Text
Duration                       : 1h 32mn
Bit rate                       : 72 bps
Count of elements              : 1820
Stream size                    : 49.1 KiB (0%)
Title                          : Full
Language                       : English
Default                        : No
Forced                         : No

Text #4
ID                             : 7
Format                         : UTF-8
Codec ID                       : S_TEXT/UTF8
Codec ID/Info                  : UTF-8 Plain Text
Duration                       : 1h 32mn
Bit rate                       : 90 bps
Count of elements              : 2275
Stream size                    : 61.6 KiB (0%)
Title                          : SDH
Language                       : English
Default                        : No
Forced                         : No

Menu
00:00:00.000                   : en:00:00:00.000
00:07:05.091                   : en:00:07:05.091
00:13:38.109                   : en:00:13:38.109
00:20:22.638                   : en:00:20:22.638
00:25:38.620                   : en:00:25:38.620
00:32:57.392                   : en:00:32:57.392
00:38:34.812                   : en:00:38:34.812
00:41:36.327                   : en:00:41:36.327
00:47:12.955                   : en:00:47:12.955
00:52:04.288                   : en:00:52:04.288
00:56:07.698                   : en:00:56:07.698
00:59:08.712                   : en:00:59:08.712
01:03:43.319                   : en:01:03:43.319
01:11:45.801                   : en:01:11:45.801
01:18:55.522                   : en:01:18:55.522
01:23:54.821                   : en:01:23:54.821
Скріншоти
Джерело: &

Відео для перегляду на 3D обладнанні!


 Трекер:    Зареєстрований   

Завантажити / скачати мультфільм українською



відео для новачків



 Зареєстрований:   2016-09-10 10:28
 Розмір:   8.43 GB 
 Оцінка мультфільму:   9.9/10 (Голосів: 16)
   
hetzendorf 
Відео Гуртом - підтримка та поширення
Відео Гуртом - підтримка та поширення


З нами з: 23.07.15
Востаннє: 21.08.17
Повідомлень: 402

2016-08-06 21:11  
Мій відгук там.
Nemess 
Новенький


З нами з: 30.09.13
Востаннє: 20.08.17
Повідомлень: 4

2016-08-13 19:15  
3Д гарне а звук не дюжо
-VipeR- 
VIP


З нами з: 17.07.08
Востаннє: 20.08.17
Повідомлень: 289

2016-09-10 10:30  
Реліз оновлено!

Звукову доріжку замінено на доріжку з BluRay 5.1 640 кбіт/с

His_Infernal_Majesty 
Новенький


З нами з: 01.12.14
Востаннє: 20.08.17
Повідомлень: 23

2016-12-03 21:36  
гарний мульт на один раз
PUMAUA 
Свій


З нами з: 07.11.09
Востаннє: 15.08.17
Повідомлень: 79

2016-12-18 00:00  
Сподобався переклад 95-го кварталу, і мульт файний.
Patriot_ukr 
VIP


З нами з: 06.04.15
Востаннє: 20.08.17
Повідомлень: 1760

2016-12-19 20:23  
PUMAUA
Знаю, що це нікого не цікавить, але мені навпаки переклад не сподобався. Як і 95-івські голоси.

Ваш часовий пояс: GMT + 2 Години

Нова тема   Відповісти