Хроніки Шаннари (Сезон 1) / The Shannara Chronicles (Season 1) (2016) 1080р 2xUkr/Eng | Sub Eng

Нові коментарі

Нова тема   Відповісти
Автор Повідомлення
Anonymous 







2016-07-31 11:33  
Хроніки Шаннари (Сезон 1) / The Shannara Chronicles (Season 1) (2016) 1080р 2xUkr/Eng | Sub Eng

Хроніки Шаннари (Сезон 1) / The Shannara Chronicles (Season 1) (2016) 1080р 2xUkr/Eng | Sub Eng


Жанр: пригодницький, фентезі, фантастика
Країна: США



Кінокомпанія: Farah Films, Music Television (MTV), Sonar Entertainment
Режисер: Джонатан Лібесман (Jonathan Liebesman), Джеймс Маршал (James Marshall), Бред Тьорнер (Brad Turner), Джессі Ворн (Jesse Warn)
Актори: Остін Батлер (Austin Butler), Поппі Дрейтон (Poppy Drayton), Івана Бакеро (Ivana Baquero), Ману Бенет (Manu Bennett), Аарон Якубенко (Aaron Jakubenko), Деніел МакФерсон (Daniel MacPherson), Джон Ріс-Девіс (John Rhys-Davies) та інші.

Сюжет:
Події серіалу відбуваються в далекому майбутньому. Війни розділили Північну Америку на 4 частини. На якійсь із них мешкають ельфи, на іншій - люди, на третій - тролі і на четвертій - дворфи. Основними персонажами серіалу виявляться нащадки прадавнього роду ельфів - Шаннара. Саме від них залежатиме майбутня доля планети ...


Тривалість: 1 серія: ~41 хв (цілком серій: 10)
Перелік серій
01. Обрана ч.1 / Chosen p.1
02. Обрана ч.2 / Chosen p.2
03. Фурія / Fury
04. Мінливиця / Changeling
05. Жнець / Reaper
06. Пайкон / Pykon
07. Кордон / Breakline
08. Утопія / Utopia
09. Оберіг / Safehold
10. Елкріс / Ellcrys
Якість:
Відео:
кодек:
розмір кадру: 1920 х 1080
бітрейт: 12.3 мб/с

Аудіо # 1 (BaibaKoTV):
мова: українська
переклад: багатоголосий закадровий
кодек: 5.1
бітрейт: 1509 кб/с

Джерело озвучення:


Аудіо # 2 (Новий):
мова: українська
переклад: багатоголосий закадровий
кодек: 2.0
бітрейт: 192 кб/с
примітка: мову друїдів/бісів перекладено субтитрами

Джерело озвучення:


Аудіо # 3:
мова: англійська
переклад: оригінал
кодек: 5.1
бітрейт: 1509 кб/с

Субтитри # 1 (переклад мови друїдів/бісів від Нового):
мова: українська
тип: програмні (м'які)
формат: *.srt

Субтитри # 2:
мова: англійська
тип: програмні (м'які)
формат: *.srt
Info
General
Unique ID : 189663244021732185271139685420075387868 (0x8EAFCFE5DBB2CB0CB406B4C4BC610BDC)
Complete name : E:\_inbox\torrents\Support\The Shannara Chronicles (Season 1) [, 1080p, Ukr, Eng]\The.Shannara.Chronicles.s01e01.Chosen.p1..1080p.
Format :
Format version : Version 4 / Version 2
File size : 4.46 GiB
Duration : 41mn 10s
Overall bit rate : 15.5 Mbps
Movie name : ЕПІЗОД-01-ОБРАНА-ч.1
Encoded date : UTC 2016-07-30 20:35:26
Writing application : v9.1.0 ('Little Earthquakes') 64bit
Writing library : libebml v1.3.3 + v1.4.4

Video
ID : 1
Format : AVC
Format/Info : Advanced Video Codec
Format profile : [email protected]
Format settings, CABAC : Yes
Format settings, ReFrames : 4 frames
Codec ID : V_MPEG4/ISO/AVC
Duration : 41mn 10s
Bit rate : 12.3 Mbps
Width : 1 920 pixels
Height : 1 080 pixels
Display aspect ratio : 16:9
Frame rate mode : Constant
Frame rate : 23.976 (24000/1001) fps
Color space : YUV
Chroma subsampling : 4:2:0
Bit depth : 8 bits
Scan type : Progressive
Bits/(Pixel*Frame) : 0.248
Stream size : 3.54 GiB (79%)
Writing library : core 148 r2665 a01e339
Encoding settings : cabac=1 / ref=4 / deblock=1:-3:-3 / analyse=0x3:0x113 / me=umh / subme=10 / psy=1 / psy_rd=1.05:0.00 / mixed_ref=1 / me_range=36 / chroma_me=1 / trellis=2 / 8x8dct=1 / cqm=0 / deadzone=6,6 / fast_pskip=0 / chroma_qp_offset=-2 / threads=12 / lookahead_threads=3 / sliced_threads=0 / nr=0 / decimate=0 / interlaced=0 / bluray_compat=0 / constrained_intra=0 / bframes=10 / b_pyramid=2 / b_adapt=2 / b_bias=0 / direct=3 / weightb=1 / open_gop=0 / weightp=2 / keyint=250 / keyint_min=23 / scenecut=40 / intra_refresh=0 / rc=2pass / mbtree=0 / bitrate=12310 / ratetol=1.0 / qcomp=0.80 / qpmin=0 / qpmax=69 / qpstep=4 / cplxblur=20.0 / qblur=0.5 / ip_ratio=1.10 / pb_ratio=1.10 / aq=3:0.60
Language : English
Default : Yes
Forced : No

Audio #1
ID : 2
Format :
Format/Info : Digital Theater Systems
Mode : 16
Format settings, Endianness : Big
Codec ID : A_DTS
Duration : 41mn 10s
Bit rate mode : Constant
Bit rate : 1 509 Kbps
Channel(s) : 6 channels
Channel positions : Front: L C R, Side: L R, LFE
Sampling rate : 48.0 KHz
Frame rate : 93.750 fps (512 spf)
Bit depth : 24 bits
Compression mode : Lossy
Stream size : 444 MiB (10%)
Title : BaibakoTV
Language : Ukrainian
Default : Yes
Forced : No

Audio #2
ID : 3
Format : AC-3
Format/Info : Audio Coding 3
Mode extension : CM (complete main)
Format settings, Endianness : Big
Codec ID : A_AC3
Duration : 41mn 10s
Bit rate mode : Constant
Bit rate : 192 Kbps
Channel(s) : 2 channels
Channel positions : Front: L R
Sampling rate : 48.0 KHz
Frame rate : 31.250 fps (1536 spf)
Compression mode : Lossy
Stream size : 56.5 MiB (1%)
Title : Новий
Language : Ukrainian
Default : No
Forced : No

Audio #3
ID : 4
Format :
Format/Info : Digital Theater Systems
Mode : 16
Format settings, Endianness : Big
Codec ID : A_DTS
Duration : 41mn 10s
Bit rate mode : Constant
Bit rate : 1 509 Kbps
Channel(s) : 6 channels
Channel positions : Front: L C R, Side: L R, LFE
Sampling rate : 48.0 KHz
Frame rate : 93.750 fps (512 spf)
Bit depth : 24 bits
Compression mode : Lossy
Stream size : 444 MiB (10%)
Language : English
Default : No
Forced : No

Text #1
ID : 5
Format : UTF-8
Codec ID : S_TEXT/UTF8
Codec ID/Info : UTF-8 Plain Text
Duration : 27mn 11s
Bit rate : 1 bps
Count of elements : 12
Stream size : 399 Bytes (0%)
Language : Ukrainian
Default : Yes
Forced : No

Text #2
ID : 6
Format : UTF-8
Codec ID : S_TEXT/UTF8
Codec ID/Info : UTF-8 Plain Text
Duration : 40mn 15s
Bit rate : 43 bps
Count of elements : 437
Stream size : 12.9 KiB (0%)
Title : (SDH)
Language : English
Default : No
Forced : No

Menu
00:00:00.000 : en:00:00:00.000
00:08:04.109 : en:00:08:04.109
00:13:25.221 : en:00:13:25.221
00:19:06.854 : en:00:19:06.854
00:26:43.435 : en:00:26:43.435
00:31:37.604 : en:00:31:37.604
Скріншоти

Запис з Нового - drakon87

Як на мене, озвучення Нового значно приємніше, та через низку причин все ж вирішив першою зробити доріжку від BaibaKoTV.

Джерело: &
Особиста оцінка: 8 - гарна казочка


Авторський реліз (завантажувати можна без реєстрації)
 Трекер:    Зареєстрований   

Завантажити / скачати серіал українською



відео для новачків



 Зареєстрований:   2016-07-31 15:49
 Розмір:   44.64 GB 
 Оцінка серіалу:   8.3/10 (Голосів: 21)
   
Anonymous 







2016-07-31 15:54  
Та що ж ви такі нетерплячі, наче й серіал не першої свіжості Happy.

Знайшов невеличкий косяк в восьмій серії, вирішив виправити поки не пізно. Прошу вибачення за незручності.

Торрент оновлено, прошу перезавантажити (змінено лише восьму серію).

respect14 
VIP


З нами з: 26.01.11
Востаннє: 04.12.20
Повідомлень: 594

2016-08-01 13:21  
А звичайного БДріпа не буде? Бачу є тільки Вебріп на Гуртомі
Anonymous 







2016-08-01 13:55  
respect14 написано:
А звичайного БДріпа не буде? Бачу є тільки Вебріп на Гуртомі

На скільки мені відомо, drakon87 збирається оновити свої роздачі, та коли і що саме - не знаю.

Едм 
VIP


З нами з: 18.05.08
Востаннє: 30.11.20
Повідомлень: 1253

2016-08-01 15:16  
Байбако перемудрили з приглушенням оригінальної доріжки

Додано через 2 хвилини 31 секунду:

Neytreenor написано:
Та що ж ви такі нетерплячі, наче й серіал не першої свіжості .

Ага, 2016 рік, дуже несвіжий

drakon87 
Відео Гуртом - фільмокрай
Відео Гуртом - фільмокрай


З нами з: 03.08.08
Востаннє: 04.12.20
Повідомлень: 1208

2016-08-06 12:26  
Едм написано:
Байбако перемудрили з приглушенням оригінальної доріжки


Всім не догодиш!

post9r137 
Новенький


З нами з: 06.10.16
Востаннє: 28.10.20
Повідомлень: 2

2017-08-06 19:04  
другий сезон планується ? (вибачте , що можливо, не по темі )
Pegass 
VIP


З нами з: 17.12.09
Востаннє: 03.12.20
Повідомлень: 1120

2017-08-06 21:07  
post9r137
http://m.imdb.com/title/tt1051220/episodes/?season=2
Другий сезон будуть показувати аж із жовтня

andriy225 
Новенький


З нами з: 02.11.12
Востаннє: 03.12.20
Повідомлень: 24

2017-11-01 21:52  
Встаньте на роздачу. Дякую
NeetScrool 
Відео Гуртом - фільмокрай
Відео Гуртом - фільмокрай


З нами з: 10.01.13
Востаннє: 03.12.20
Повідомлень: 3105

2018-05-11 12:21  
Можна доріжку від Нового та субтитри?
Ваш часовий пояс: GMT + 2 Години

Нова тема   Відповісти