Мисливець і Снігова королева / The Huntsman: Winter's War (2016) 1080p Ukr/Eng | Sub 2xUkr/Eng

Нові коментарі

Нова тема   Відповісти
Автор Повідомлення
Anonymous 







2016-07-26 01:38  
Мисливець і Снігова королева / The Huntsman: Winter's War (2016) 1080p Ukr/Eng | Sub 2xUkr/Eng

Мисливець і Снігова королева / The Huntsman: Winter's War (2016) 1080p Ukr/Eng | Sub 2xUkr/Eng


Жанр: драма, пригодницький, фентезі, бойовик
Країна: США



Кінокомпанія: Universal Pictures, Roth Films
Режисер: Седрік Ніколя-Троян
Актори: Кріс Гемсворт, Джессіка Честейн, Емілі Блант, Шарліз Терон, Сем Клафлін, Колін Морґан, Нік Фрост, Роб Брайдон, Софі Куксон, Александра Роач

Сюжет:
Продовження пригодницького фільму "Білосніжка і мисливець", засноване на відомих персонажаж із казок братів Ґрімм і Ганса Крістіана Андерсена, зі світовими зірками в головних ролях: Кріс Гемсворт, Емілі Блант, Джессіка Честейн, Шарліз Терон. Задовго до того, як померти від рук Білосніжки, зла королева Равенна правила королівством, як найпрекрасніша на землі. Але у її сестри Фреї народилася дівчинка, чия краса повинна була затьмарити всіх у королівстві. Равенна вбила племінницю і Фрея занурилася в горе. Вона набула смертельну силу - здатність заморозити будь-якого ворога. Таку душевну травму нікому не під силу забути. Фрея помститься сестрі.

Українські трейлери





Рейтинг MPAA: PG-13 - дітям до 13 років перегляд не бажаний
Вікова категорія: 12+

Тривалість: 01:53:57 [Театральна версія]
Якість: 1080p
Відео:
кодек:
розмір кадру: 1920 х 804
бітрейт: 13,9 Мбіт/с

Аудіо # 1:
мова: українська
переклад: професійний дубльований | студія LeDoyen
кодек: 5.1
бітрейт: 448 Кбіт/с
Інформація про дубляж
Переклад: Сергій Ковальчук
Режисер дубляжу: Ганна Пащенко
Звукорежисер: Михайло Угрин
Координатор дубляжу: Ольга Боєва
Ролі дублювали: Дмитро Гаврилов, Наталя Романько-Кисельова, Катерина Качан, Наталя Ярошенко, Олена Бушевська, Володимир Терещук, Олесь Задніпровський, Ганна Соболєва, Андрій Федінчик та інші

Фільм дубльовано студією LeDoyen на замовлення B&H Film Distribution
Аудіо # 2:
мова: англійська
переклад: оригінал
кодек: 5.1
бітрейт: 1509 Кбіт/с

Аудіо # 3:
мова: англійська
переклад: оригінал
кодек: AC 5.1
бітрейт: 448 Кбіт/с

Аудіо # 4:
мова: англійська
переклад: коментарі режисера Седріка Ніколя-Трояна
кодек: AC 2.0
бітрейт: 192 Кбіт/с

Субтитри # 1:
мова: українська
тип: програмні (м'які)
формат: *.srt
примітка: скомпільовано на основі субтитрів з офіційного блурея розширеної версії

Субтитри # 2:
мова: українська
тип: програмні (м'які)
формат: *.srt
примітка: редагування, обробка та синхронізація на основі субтитрів від kibril

Субтитри # 3:
мова: англійська (повні)
тип: програмні (м'які)
формат: *.srt

Збережено оригінальні розділи, як на Blu-ray
Info
Код:
Complete name               : The Huntsman Winter's War (2016) [Ukr,Eng sub.Ukr,Eng] 1080p [Hurtom].
Format                      :
Format version              : Version 4
File size                   : 13.1 GiB
Duration                    : 1 h 54 min
Overall bit rate            : 16.4 Mb/s
Movie name                  : Мисливець і Снігова королева (Білосніжка та мисливець 2) / The Huntsman: Winter's War (2016) [Ukr,Eng sub.Ukr,Eng] 1080p [Hurtom]
Encoded date                : UTC 2020-12-24 18:35:23
Writing application         : v51.0.0 ('I Wish') 64-bit
Writing library             : libebml v1.4.0 + v1.6.2
Cover                       : Yes
Attachments                 : cover.jpg

Video
ID                          : 1
Format                      : AVC
Format/Info                 : Advanced Video Codec
Format profile              : [email protected]
Format settings             : CABAC / 5 Ref Frames
Format settings, CABAC      : Yes
Format settings, Reference  : 5 frames
Codec ID                    : V_MPEG4/ISO/AVC
Duration                    : 1 h 53 min
Bit rate                    : 13.9 Mb/s
Width                       : 1 920 pixels
Height                      : 804 pixels
Display aspect ratio        : 2.40:1
Frame rate mode             : Constant
Frame rate                  : 23.976 (24000/1001) FPS
Color space                 : YUV
Chroma subsampling          : 4:2:0
Bit depth                   : 8 bits
Scan type                   : Progressive
Bits/(Pixel*Frame)          : 0.375
Stream size                 : 11.0 GiB (84%)
Title                       : Мисливець і Снігова королева (Білосніжка та мисливець 2) / The Huntsman: Winter's War (2016) 1080p [ExKinoRay]
Writing library             : core 146 r2538 121396c
Encoding settings           : cabac=1 / ref=5 / deblock=1:-3:-3 / analyse=0x3:0x133 / me=umh / subme=10 / psy=1 / psy_rd=1.10:0.00 / mixed_ref=1 / me_range=32 / chroma_me=1 / trellis=2 / 8x8dct=1 / cqm=0 / deadzone=21,11 / fast_pskip=0 / chroma_qp_offset=-2 / threads=6 / lookahead_threads=2 / sliced_threads=0 / nr=0 / decimate=0 / interlaced=0 / bluray_compat=0 / constrained_intra=0 / bframes=8 / b_pyramid=2 / b_adapt=2 / b_bias=0 / direct=3 / weightb=1 / open_gop=0 / weightp=2 / keyint=240 / keyint_min=23 / scenecut=40 / intra_refresh=0 / rc_lookahead=150 / rc=2pass / mbtree=1 / bitrate=13867 / ratetol=1.0 / qcomp=0.70 / qpmin=0 / qpmax=69 / qpstep=4 / cplxblur=20.0 / qblur=0.5 / vbv_maxrate=50000 / vbv_bufsize=62500 / nal_hrd=none / filler=0 / ip_ratio=1.40 / aq=3:0.80
Language                    : English
Default                     : Yes
Forced                      : No

Audio #1
ID                          : 2
Format                      : AC-3
Format/Info                 : Audio Coding 3
Commercial name             : Dolby Digital
Codec ID                    : A_AC3
Duration                    : 1 h 53 min
Bit rate mode               : Constant
Bit rate                    : 448 kb/s
Channel(s)                  : 6 channels
Channel layout              : L R C LFE Ls Rs
Sampling rate               : 48.0 kHz
Frame rate                  : 31.250 FPS (1536 SPF)
Compression mode            : Lossy
Stream size                 : 365 MiB (3%)
Title                       : Dub [LeDoyen], 5.1 448 Kbps
Language                    : Ukrainian
Service kind                : Complete Main
Default                     : Yes
Forced                      : Yes

Audio #2
ID                          : 3
Format                      :
Format/Info                 : Digital Theater Systems
Codec ID                    : A_DTS
Duration                    : 1 h 53 min
Bit rate mode               : Constant
Bit rate                    : 1 509 kb/s
Channel(s)                  : 6 channels
Channel layout              : C L R Ls Rs LFE
Sampling rate               : 48.0 kHz
Frame rate                  : 93.750 FPS (512 SPF)
Bit depth                   : 24 bits
Compression mode            : Lossy
Stream size                 : 1.20 GiB (9%)
Title                       : Original, 5.1 1509 Kbps
Language                    : English
Default                     : No
Forced                      : No

Audio #3
ID                          : 4
Format                      : AC-3
Format/Info                 : Audio Coding 3
Commercial name             : Dolby Digital
Codec ID                    : A_AC3
Duration                    : 1 h 53 min
Bit rate mode               : Constant
Bit rate                    : 448 kb/s
Channel(s)                  : 6 channels
Channel layout              : L R C LFE Ls Rs
Sampling rate               : 48.0 kHz
Frame rate                  : 31.250 FPS (1536 SPF)
Compression mode            : Lossy
Stream size                 : 365 MiB (3%)
Title                       : Original, 5.1 448 kbps
Language                    : English
Service kind                : Complete Main
Default                     : No
Forced                      : No

Audio #4
ID                          : 5
Format                      : AC-3
Format/Info                 : Audio Coding 3
Commercial name             : Dolby Digital
Codec ID                    : A_AC3
Duration                    : 1 h 53 min
Bit rate mode               : Constant
Bit rate                    : 192 kb/s
Channel(s)                  : 2 channels
Channel layout              : L R
Sampling rate               : 48.0 kHz
Frame rate                  : 31.250 FPS (1536 SPF)
Compression mode            : Lossy
Stream size                 : 157 MiB (1%)
Title                       : Commentary by director Cedric Nicolas-Troyan
Language                    : English
Service kind                : Complete Main
Default                     : No
Forced                      : No

Text #1
ID                          : 6
Format                      : UTF-8
Codec ID                    : S_TEXT/UTF8
Codec ID/Info               : UTF-8 Plain Text
Duration                    : 1 h 53 min
Bit rate                    : 52 b/s
Count of elements           : 1042
Stream size                 : 43.4 KiB (0%)
Title                       : Ukr Full [Blu-ray]
Language                    : Ukrainian
Default                     : No
Forced                      : No

Text #2
ID                          : 7
Format                      : UTF-8
Codec ID                    : S_TEXT/UTF8
Codec ID/Info               : UTF-8 Plain Text
Duration                    : 1 h 44 min
Bit rate                    : 54 b/s
Count of elements           : 1009
Stream size                 : 41.7 KiB (0%)
Title                       : Ukr Full [Hurtom-igor911], kibril
Language                    : Ukrainian
Default                     : No
Forced                      : No

Text #3
ID                          : 8
Format                      : UTF-8
Codec ID                    : S_TEXT/UTF8
Codec ID/Info               : UTF-8 Plain Text
Duration                    : 1 h 43 min
Bit rate                    : 36 b/s
Count of elements           : 1039
Stream size                 : 27.5 KiB (0%)
Title                       : Eng Full
Language                    : English
Default                     : No
Forced                      : No

Menu
00:00:00.000                : en:Chapter 01
00:06:28.000                : en:Chapter 02
00:09:28.000                : en:Chapter 03
00:15:05.000                : en:Chapter 04
00:21:35.000                : en:Chapter 05
00:26:54.000                : en:Chapter 06
00:32:36.000                : en:Chapter 07
00:36:53.000                : en:Chapter 08
00:42:16.000                : en:Chapter 09
00:47:29.000                : en:Chapter 10
00:54:39.000                : en:Chapter 11
00:59:28.000                : en:Chapter 12
01:06:20.000                : en:Chapter 13
01:10:22.000                : en:Chapter 14
01:17:47.000                : en:Chapter 15
01:23:19.000                : en:Chapter 16
01:28:08.000                : en:Chapter 17
01:33:42.000                : en:Chapter 18
01:42:22.000                : en:Chapter 19
01:44:28.000                : en:Chapter 20
Ще трохи скріншотів


Джерела та подяки: &
Подяка Sando7, -_-В_Е_N_D_E_R-_- за українську доріжку 5.1. Робота з українськими субтитрами - igor911.

Історія релізу:
26.07.2016 початковий реліз, 1080p + дубляж
04.08.2016 замінено відеоряд на , додано українські субтитри (машинний переклад + редагування)
24.12.2020 реліз оновлено - відеоряд замінено на якісніший, український дубляж замінено з Line на якісний 5.1, додано офіційні українські субтитри



 Трекер:    Зареєстрований   

Завантажити / скачати фільм українською



відео для новачків



 Зареєстрований:   2020-12-24 21:05
 Розмір:   13.1 GB 
 Оцінка фільму:   7.5/10 (Голосів: 48)
 ЗАЛИШАЙТЕСЬ ЯКОМОГА ДОВШЕ НА РОЗДАЧІ! ЗАВАНТАЖИВ САМ - ДАЙ ЗАВАНТАЖИТИ ІНШИМ!
   
bot 
робот


З нами з: 30.09.07
Востаннє: 26.05.05
Повідомлень: 26934

2016-07-26 16:42  
Тему перенесено з Анонси релізів до форуму Фільми в HD


igor911

Anonymous 







2016-07-26 16:55  
Мій 600й реліз.
buzik13 
Відео Гуртом - підтримка та поширення
Відео Гуртом - підтримка та поширення


З нами з: 22.12.10
Востаннє: 19.01.21
Повідомлень: 33

2016-07-26 19:34  
igor911
Вітаю! Бажаю всього найкращого, нехай усі blu ray виходять з українською звуковою доріжкою, а ціни на харди при бажанні танули як сніг на сонці, і нехай ця сотня буде далеко не останньою!

Anonymous 







2016-07-26 19:35  
buzik13, дякую Wide grin
Spawn 182 
Свій


З нами з: 27.07.09
Востаннє: 16.01.21
Повідомлень: 58

2016-07-26 21:08  
Вітаю!!!! Побільше б таких класних релізерів, які роблять важливу справу!!!! Популяризують і проштовхують українське!!!
Anonymous 







2016-07-30 03:45  
Реліз скоро буде оновлено до 'а, працюю над укр.субтитрами.
Anonymous 







2016-08-04 13:44  
Реліз оновлено!
Замінено відеоряд на якісніший та додано українські субтитри.

MrRyanCooper 
VIP


З нами з: 23.08.12
Востаннє: 19.01.21
Повідомлень: 519

2016-08-14 20:39  
А це начебто передісторія того, що вийшло колись? Принаймні десь на англ обкладинці таке читав.
Anonymous 







2016-08-14 22:50  
MrRyanCooper
igor911 написано:
Знайти всі релізи всіх частин цього фільму на Гуртом

https://toloka.to/tracker.php?nm=Huntsman

vitalikfv 
Частий відвідувач


З нами з: 29.12.13
Востаннє: 19.01.21
Повідомлень: 27

2017-08-31 01:16  
Фільм сподобався дуже. Дякую за реліз! ))) 10 з 10.
DuB.Bog 
Свій


З нами з: 14.04.13
Востаннє: 11.01.21
Повідомлень: 88

2017-11-06 02:13  
станьте на роздачу, в кого є фільм...
Anonymous 







2020-12-24 21:06  
Реліз оновлено - відеоряд замінено на якісніший, український дубляж замінено з Line на якісний 5.1, додано офіційні українські субтитри.
Ваш часовий пояс: GMT + 2 Години

Нова тема   Відповісти