Вусолапокіт / The Twisted Whiskers Show (Серії 47 з 52) (2009) AVC Upscale 720p

Нові коментарі

Нова тема   Відповісти
Останній раз роздавалося sergiyko.5 (2020-11-26)
Автор Повідомлення
sergiyko.5 
Забанено
Забанено


З нами з: 25.02.16
Востаннє: 29.10.20
Повідомлень: 3648

2016-07-22 16:46  
Вусолапокіт / The Twisted Whiskers Show (Серії 47 з 52) (2009) AVC Upscale 720p

Вусолапокіт / The Twisted Whiskers Show (Серії 47 з 52) (2009) AVC Upscale 720p

Жанр: Розважальний мультсеріал
Країна: США
Режисер: Біл Копп

Сюжет:
За малими пухнастиками так цікаво спостерігати! Особливо, якщо у кожній серії вони потрапляють у веселі пригоди! Дивіться «Вусолапокіт» та знайомтеся із кумедними звірятами: від кошенятка Яупа із блакитними очима, до великого домашнього кота М’юзера, який полюбляє гарне життя та мексиканські мильні опери. З героями мультика «Вусолапокіт» нудьгувати не доведеться!




Тривалість: 1 серія: 10:40 (цілком серій: 47)

Якість:
Відео: кодек: розмір кадру: 1280 х 672 бітрейт: 1500 кб/с
Аудіо: мова: українська переклад: багатоголосий закадровий кодек: 2.0 бітрейт: 192 кб/с
Джерело озвучення:
Перелік серій

01 Собачий харч
03 Тусовщики
04 Кіт-учений
05 Мишко з нами
06 На безлюдному острові
07 Грім з ясного неба
08 Боягуз
09 Тиха година
10 Облиш мене
11 Добрий лихий і любка
12 До запуску готовий
13 Витік мізків
14 Нахаби на дорозі
15 Фатальна кішечка
16 За все доводиться платити
17 До дідька в зуби
18 Загублені
20 Любов зла
21 Слухайся і корися
22 Попався
23 У гостях добре, а вдома краще
25 Влучні веселощі
26 Видовищна вечірка у Мявсера
51
52
Info
General
Complete name : E:\Torrents\Mult\The Twisted Whiskers Show \S01E07.Twister Tyke.720p.mp4
Format : MPEG-4
Format profile : Base Media
Codec ID : isom (isom)
File size : 128 MiB
Duration : 10mn 38s
Overall bit rate mode : Variable
Overall bit rate : 1 680 Kbps
Encoded date : UTC 2016-04-28 13:30:00
Tagged date : UTC 2016-04-28 13:30:00

Video
ID : 1
Format : AVC
Format/Info : Advanced Video Codec
Format profile : [email protected]
Format settings, CABAC : Yes
Format settings, ReFrames : 5 frames
Codec ID : avc1
Codec ID/Info : Advanced Video Coding
Duration : 10mn 38s
Bit rate : 1 484 Kbps
Maximum bit rate : 4 047 Kbps
Width : 1 280 pixels
Height : 672 pixels
Display aspect ratio : 1.905
Frame rate mode : Constant
Frame rate : 25.000 fps
Color space : YUV
Chroma subsampling : 4:2:0
Bit depth : 8 bits
Scan type : Progressive
Bits/(Pixel*Frame) : 0.069
Stream size : 113 MiB (88%)
Title : rip by sergiyko
Writing library : core 148 r2665 a01e339
Encoding settings : cabac=1 / ref=5 / deblock=1:-1:-1 / analyse=0x3:0x113 / me=umh / subme=9 / psy=1 / psy_rd=0.40:0.00 / mixed_ref=1 / me_range=16 / chroma_me=1 / trellis=2 / 8x8dct=1 / cqm=0 / deadzone=21,11 / fast_pskip=1 / chroma_qp_offset=-2 / threads=4 / lookahead_threads=1 / sliced_threads=0 / nr=0 / decimate=1 / interlaced=0 / bluray_compat=0 / constrained_intra=0 / bframes=3 / b_pyramid=2 / b_adapt=2 / b_bias=0 / direct=3 / weightb=1 / open_gop=0 / weightp=2 / keyint=250 / keyint_min=25 / scenecut=40 / intra_refresh=0 / rc_lookahead=50 / rc=crf / mbtree=1 / crf=21.0 / qcomp=0.60 / qpmin=0 / qpmax=69 / qpstep=4 / vbv_maxrate=2500 / vbv_bufsize=2500 / crf_max=0.0 / nal_hrd=none / filler=0 / ip_ratio=1.40 / aq=1:0.60
Encoded date : UTC 2016-04-28 12:03:55
Tagged date : UTC 2016-04-28 13:30:02

Audio
ID : 2
Format :
Format/Info : Advanced Audio Codec
Format profile : LC
Codec ID : 40
Duration : 10mn 38s
Bit rate mode : Variable
Bit rate : 192 Kbps
Maximum bit rate : 197 Kbps
Channel(s) : 2 channels
Channel positions : Front: L R
Sampling rate : 48.0 KHz
Frame rate : 46.875 fps (1024 spf)
Compression mode : Lossy
Stream size : 14.6 MiB (11%)
Title : 2ch 192kbps | Піксель
Language : Ukrainian
Encoded date : UTC 2016-04-28 11:48:41
Tagged date : UTC 2016-04-28 13:30:02
Скріншоти:


Релиз: sergiyko


Бронзовий реліз (на рейтинг впливає 75% завантаженого)
 Трекер:    Зареєстрований   

Завантажити / скачати мультфільм українською



відео для новачків



 Зареєстрований:   2016-07-22 16:46
 Розмір:   5.06 GB 
 Оцінка мультсеріалу:   5.5/10 (Голосів: 4)
   
bot 
робот


З нами з: 30.09.07
Востаннє: 26.05.05
Повідомлень: 27938

2017-08-21 00:27  
Тему перенесено з Мультсеріали в HD до форуму Архів відео

Причина перенесення: Останній раз роздавалося sergiyko.5 (2017-03-15)
igor911

bot 
робот


З нами з: 30.09.07
Востаннє: 26.05.05
Повідомлень: 27938

2018-08-14 20:48  
Тему перенесено з Архів відео до форуму Мультсеріали в HD

Причина перенесення: відновлення роздачі
igor911

Ваш часовий пояс: GMT + 2 Години

Нова тема   Відповісти