Добровольці Божої Чоти / The Ukrainians (2015) 720p Ukr | Sub Eng

Нові коментарі

Нова тема   Відповісти
Автор Повідомлення
Anonymous 







2016-07-21 08:21  
Добровольці Божої Чоти / The Ukrainians (2015) 720p Ukr | Sub Eng

Добровольці Божої Чоти / The Ukrainians (2015) 720p Ukr | Sub Eng


Жанр: документальний, військовий, історичний
Країна: Україна



Кінокомпанія: Зелене Плем'я, РІК-ТБ Продакшн
Режисер: Леонід Кантер, Іван Ясній
Актори: "Чорний", Валерій Чоботарь "Гатило", Андрій Шараскін "Богема", "Зухвалий", Олександр Чуб, "Зелений", "Нельсон", "Данте", Яна Зінкевич, бійці ДУК ПС

Сюжет:
Цей фільм - історія творення нової української армії. Повсталий народ скинув кримінальний уряд і вигнав васалів Російської Імперії. Розлючений колонізатор кидає на Україну свої війська та захоплює частину території. Президент України підписує угоду про перемир'я та лінію розмежування сторін. Згідно цієї угоди Донецький міжнародний аеропорт опинився за цією лінією. Але патріоти-добровольці не згодні віддавати його ворогові. 242 дні тривала героїчна оборона, доки кинуті командуванням напризволяще захисники не були підірвані ворогом 19 січня 2015 року у будівлі нового терміналу, внаслідок чого загинули чи потрапили у полон.

Трейлери



Тривалість: 01:25:43
Якість: 720p (власний ріп)
Відео:
кодек:
розмір кадру: 1280 х 720
бітрейт: 5255 Кбіт/с [crf=18]

Аудіо:
мова: українська
переклад: оригінал
кодек: 2.0
бітрейт: 224 Кбіт/с

Субтитри:
мова: англійська
тип: вбудовані (жорсткі)
Info та log
Код:
Complete name               : The Ukrainians (2015) 720p [Hurtom].
Format                      :
Format version              : Version 4 / Version 2
File size                   : 3.28 GiB
Duration                    : 1 h 25 min
Overall bit rate            : 5 481 kb/s
Movie name                  : Добровольці Божої Чоти / The Ukrainians (2015) 720p [Hurtom] by igor911
Encoded date                : UTC 2016-07-21 04:49:51
Writing application         : v9.3.1 ('Mask Machine') 64bit
Writing library             : libebml v1.3.4 + v1.4.5
Cover                       : Yes
Attachments                 : cover.jpg

Video
ID                          : 1
Format                      : AVC
Format/Info                 : Advanced Video Codec
Format profile              : [email protected]
Format settings, CABAC      : Yes
Format settings, ReFrames   : 9 frames
Codec ID                    : V_MPEG4/ISO/AVC
Duration                    : 1 h 25 min
Bit rate                    : 5 255 kb/s
Width                       : 1 280 pixels
Height                      : 720 pixels
Display aspect ratio        : 16:9
Frame rate mode             : Constant
Frame rate                  : 25.000 FPS
Color space                 : YUV
Chroma subsampling          : 4:2:0
Bit depth                   : 8 bits
Scan type                   : Progressive
Bits/(Pixel*Frame)          : 0.228
Stream size                 : 3.15 GiB (96%)
Title                       : Добровольці Божої Чоти / The Ukrainians (2015) 720p
Writing library             : core 148 r2638 7599210
Encoding settings           : cabac=1 / ref=9 / deblock=1:-1:-1 / analyse=0x3:0x133 / me=umh / subme=10 / psy=1 / psy_rd=1.00:0.15 / mixed_ref=1 / me_range=32 / chroma_me=1 / trellis=2 / 8x8dct=1 / cqm=0 / deadzone=21,11 / fast_pskip=0 / chroma_qp_offset=-3 / threads=12 / lookahead_threads=2 / sliced_threads=0 / nr=0 / decimate=1 / interlaced=0 / bluray_compat=0 / constrained_intra=0 / bframes=8 / b_pyramid=2 / b_adapt=2 / b_bias=0 / direct=3 / weightb=1 / open_gop=0 / weightp=2 / keyint=250 / keyint_min=25 / scenecut=40 / intra_refresh=0 / rc_lookahead=60 / rc=crf / mbtree=1 / crf=18.0 / qcomp=0.60 / qpmin=0 / qpmax=69 / qpstep=4 / vbv_maxrate=50000 / vbv_bufsize=62500 / crf_max=0.0 / nal_hrd=none / filler=0 / ip_ratio=1.40 / aq=1:1.00
Language                    : Ukrainian
Default                     : Yes
Forced                      : No

Audio
ID                          : 2
Format                      : AC-3
Format/Info                 : Audio Coding 3
Mode extension              : CM (complete main)
Format settings, Endianness : Big
Codec ID                    : A_AC3
Duration                    : 1 h 25 min
Bit rate mode               : Constant
Bit rate                    : 224 kb/s
Channel(s)                  : 2 channels
Channel positions           : Front: L R
Sampling rate               : 48.0 kHz
Frame rate                  : 31.250 FPS (1536 spf)
Compression mode            : Lossy
Stream size                 : 137 MiB (4%)
Title                       : Original, 2.0 224 kbps
Language                    : Ukrainian
Default                     : Yes
Forced                      : No


Код:
raw [info]: 1280x720p 1:1 @ 25/1 fps (cfr)
[info]: using SAR=1/1
[info]: using cpu capabilities: MMX2 SSE2Fast SSSE3 SSE4.2 AVX
[info]: profile High, level 4.1
[info]: frame I:933   Avg QP:14.97  size:141499
[info]: frame P:33074 Avg QP:19.26  size: 52878
[info]: frame B:94588 Avg QP:22.59  size: 15834
[info]: consecutive B-frames:  4.0%  5.0% 10.1% 36.5% 15.6% 16.9%  4.6%  4.9%  2.4%
[info]: mb I  I16..4:  9.6% 53.4% 37.0%
[info]: mb P  I16..4:  3.3% 19.5%  4.3%  P16..4: 32.5% 17.7% 13.3%  2.1%  0.9%    skip: 6.4%
[info]: mb B  I16..4:  0.7%  2.7%  0.6%  B16..8: 35.8% 12.9%  3.7%  direct: 8.3%  skip:35.3%  L0:40.4% L1:43.1% BI:16.5%
[info]: 8x8 transform intra:69.5% inter:55.3%
[info]: direct mvs  spatial:99.5% temporal:0.5%
[info]: coded y,uvDC,uvAC intra: 65.8% 65.9% 29.8% inter: 25.7% 20.9% 2.0%
[info]: i16 v,h,dc,p: 28% 22%  9% 42%
[info]: i8 v,h,dc,ddl,ddr,vr,hd,vl,hu: 15% 16% 14%  6%  9%  9% 10%  9% 12%
[info]: i4 v,h,dc,ddl,ddr,vr,hd,vl,hu: 13% 14%  7%  7% 12% 11% 12%  9% 14%
[info]: i8c dc,h,v,p: 44% 26% 18% 12%
[info]: Weighted P-Frames: Y:7.3% UV:2.5%
[info]: ref P L0: 55.6% 13.8% 13.8%  5.0%  3.6%  2.7%  2.3%  1.5%  1.5%  0.2%  0.0%
[info]: ref B L0: 83.5%  8.3%  3.4%  1.7%  1.3%  1.0%  0.6%  0.2%
[info]: ref B L1: 94.7%  5.3%
[info]: kb/s:5254.63
encoded 128595 frames, 10.04 fps, 5254.63 kb/s


Пам'яті полеглих бійців ДУК ПС

Спробую викладати тут матеріали про героїв, що віддали життя за Україну:
Герої не вмирають. Олександр Райхерт


Олександр Райхерт "Чорний" загинув 09 листопада 2014 року в с. Піски біля Донецького аеропорту від тяжкого поранення.
18-річний боєць штурмової роти 5-го ОБ ДУК "Правий Сектор" добровольцем пішов на війну. Батькам сказавши, що поїхав на море. Саша говорив, що війну потрібно закінчити на сході, щоб не літали міни і гради над рідним Херсоном.
Любов Лагутенко, журналіст: «Саша Райхерт дуже не любив несправедливості ... Він був сильним, - виступав у показових виступах, але ніколи цим не хизувався. І не прощав іншим, хто вдавався до сили, він завжди захищав слабких ... У свої 18 років старший син в сім'ї Райхерт прийняв гідне чоловіка рішення - відклав навчання в технікумі і пішов захищати Батьківщину. Про його рішення батьки і близькі дізналися тоді, коли він вже перебував у зоні бойових дій. Саша був наймолодшим серед добровольців Херсонщини, наймолодшим серед воїнів АТО, загиблих під Пісками ... Своїм однокурсникам він запам'ятався відданим другом, у якого будь-яка справа ладилася, а ще - веселим хлопцем ... Багато співав, грав на гітарі, яку у важкий для країни час змінив на зброю. Інакше і бути не могло - він з юних років відчував себе Захисником .... Світла, вдячна пам'ять Тобі, дорогий земляк, патріот Батьківщини своєї .... Ти віддав своє юне життя за мир на нашій землі ... І ми будемо це пам'ятати ...»



Особиста оцінка: 10 - без зайвих вагань рекомендую всім!


Золотий реліз (завантажене не впливає на рейтинг)
 Трекер:    Зареєстрований   

Завантажити / скачати фільм українською



відео для новачків



 Зареєстрований:   2016-07-21 08:21
 Розмір:   3.28 GB 
 Оцінка фільму:   8.2/10 (Голосів: 50)
   
Anonymous 







2016-07-21 10:37  
McLom 
Свій


З нами з: 16.08.09
Востаннє: 04.10.20
Повідомлень: 103

2016-08-01 18:39  
дякую за 720 !
AndrewFG 
VIP


З нами з: 31.10.10
Востаннє: 28.10.20
Повідомлень: 435

2016-08-15 11:20  
Фільм є на YouTube?
Anonymous 







2016-08-15 13:02  
AndrewFG, є онлайн-перегяд на офіційному сайті http://www.ukrainians.net.ua/
Форкуш 
VIP


З нами з: 03.02.10
Востаннє: 29.10.20
Повідомлень: 2864

2016-08-19 00:02  
вкажіть ot в назвах sub Eng
Anonymous 







2018-06-05 12:10  
Режисер фільму, Леонід Кантер наклав на себе руки...
R.I.P.

Ваш часовий пояс: GMT + 2 Години

Нова тема   Відповісти